<?xml version="1.0" standalone="no"?>
<!DOCTYPE svg PUBLIC "-//W3C//DTD SVG 1.1//EN" "http://www.w3.org/Graphics/SVG/1.1/DTD/svg11.dtd" >
<svg xmlns="http://www.w3.org/2000/svg" xmlns:xlink="http://www.w3.org/1999/xlink" version="1.1">
<metadata>
Created by FontForge 20150102 at Tue Feb 17 11:47:56 2015
 By uniteet7
Copyright (c) 2002 The Hoefler Type Foundry, Inc., dba Hoefler &#38; Frere-Jones. All Rights Reserved.
</metadata>
<defs>
<font id="GothaProIta" horiz-adv-x="500" >
  <font-face 
    font-family="GothaProIta"
    font-weight="400"
    font-style="italic"
    font-stretch="normal"
    units-per-em="1000"
    panose-1="2 0 5 3 4 0 0 9 0 4"
    ascent="800"
    descent="-200"
    x-height="517"
    cap-height="700"
    bbox="-125 -200 1185 908"
    underline-thickness="20"
    underline-position="-113"
    slope="-15"
    unicode-range="U+0020-FB04"
  />
<missing-glyph 
d="M0 0v700h500v-700h-500zM81 49h339l-170 255zM49 96l171 254l-171 254v-508zM450 96v508l-171 -254zM250 395l170 255h-339z" />
    <glyph glyph-name="fi" unicode="fi" horiz-adv-x="639" 
d="M563 630l24 85h87l-23 -85h-88zM46 0l121 449h-71l18 68h71l17 62q40 153 177 153q61 0 103 -22l-18 -66q-45 21 -85 21q-78 0 -104 -98l-13 -50h169l-19 -68h-168l-121 -449h-77zM399 0l139 517h77l-139 -517h-77z" />
    <glyph glyph-name="fl" unicode="fl" horiz-adv-x="639" 
d="M46 0l121 449h-71l18 68h71l17 62q40 153 177 153q61 0 103 -22l-18 -66q-45 21 -85 21q-78 0 -104 -98l-13 -50h169l-19 -68h-168l-121 -449h-77zM399 0l196 730h77l-196 -730h-77z" />
    <glyph glyph-name="ffi" unicode="ffi" horiz-adv-x="1014" 
d="M939 630l23 85h88l-24 -85h-87zM422 0l121 449h-72l18 68h71l17 62q40 153 178 153q60 0 102 -22l-18 -66q-45 21 -85 21q-78 0 -104 -98l-13 -50h169l-18 -68h-169l-121 -449h-76zM46 0l121 449h-71l18 68h71l17 62q40 153 177 153q61 0 103 -22l-18 -66q-45 21 -85 21
q-78 0 -104 -98l-13 -50h169l-19 -68h-168l-121 -449h-77zM775 0l139 517h76l-139 -517h-76z" />
    <glyph glyph-name="ffl" unicode="ffl" horiz-adv-x="1014" 
d="M422 0l121 449h-72l18 68h71l17 62q40 153 178 153q60 0 102 -22l-18 -66q-45 21 -85 21q-78 0 -104 -98l-13 -50h169l-18 -68h-169l-121 -449h-76zM46 0l121 449h-71l18 68h71l17 62q40 153 177 153q61 0 103 -22l-18 -66q-45 21 -85 21q-78 0 -104 -98l-13 -50h169
l-19 -68h-168l-121 -449h-77zM775 0l196 730h76l-196 -730h-76z" />
    <glyph glyph-name=".notdef" 
d="M0 0v700h500v-700h-500zM81 49h339l-170 255zM49 96l171 254l-171 254v-508zM450 96v508l-171 -254zM250 395l170 255h-339z" />
    <glyph glyph-name=".null" horiz-adv-x="0" 
 />
    <glyph glyph-name="nonmarkingreturn" horiz-adv-x="333" 
 />
    <glyph glyph-name="space" unicode=" " horiz-adv-x="300" 
 />
    <glyph glyph-name="exclam" unicode="!" horiz-adv-x="271" 
d="M97 198l96 445l16 57h90l-15 -57l-143 -445h-44zM20 0l28 105h92l-28 -105h-92z" />
    <glyph glyph-name="quotedbl" unicode="&#x22;" horiz-adv-x="442" 
d="M297 428l91 272h92l-1 -5l-139 -267h-43zM100 428l91 272h92l-1 -5l-139 -267h-43z" />
    <glyph glyph-name="numbersign" unicode="#" horiz-adv-x="682" 
d="M77 0l62 177h-110l17 69h117l74 212h-122l18 69h128l60 173h71l-61 -173h191l60 173h71l-61 -173h111l-18 -69h-116l-75 -212h123l-18 -69h-129l-61 -177h-71l62 177h-191l-61 -177h-71zM234 246h189l75 212h-190z" />
    <glyph glyph-name="dollar" unicode="$" horiz-adv-x="623" 
d="M182 -98l30 104q-135 22 -214 118l58 49q69 -81 180 -98l68 252q-93 36 -134 74.5t-41 102.5q0 84 70 140t174 56q6 0 17.5 -0.5t16.5 -0.5l17 59h63l-18 -68q96 -21 167 -90l-55 -53q-57 57 -136 74l-66 -238q89 -32 129.5 -73.5t40.5 -105.5q0 -89 -73.5 -146.5
t-188.5 -57.5h-14l-27 -98h-64zM326 402l62 227q-76 7 -127 -27.5t-51 -89.5q0 -37 26.5 -61.5t89.5 -48.5zM292 70q78 -2 127 33t49 93q0 36 -25 62t-85 50z" />
    <glyph glyph-name="percent" unicode="%" horiz-adv-x="837" 
d="M232 346q-62 0 -101.5 42t-39.5 104q0 85 55.5 150.5t135.5 65.5q63 0 102.5 -42t39.5 -104q0 -85 -56 -150.5t-136 -65.5zM64 0l679 700h79l-679 -700h-79zM603 -7q-62 0 -101.5 41.5t-39.5 104.5q0 84 56 150t136 66q62 0 101.5 -42t39.5 -104q0 -85 -56 -150.5
t-136 -65.5zM237 401q51 0 88 49t37 107q0 44 -22.5 70t-61.5 26q-51 0 -88 -49t-37 -107q0 -44 22 -70t62 -26zM608 48q51 0 88 49t37 107q0 44 -22.5 70t-61.5 26q-51 0 -88 -49t-37 -108q0 -43 22.5 -69t61.5 -26z" />
    <glyph glyph-name="ampersand" unicode="&#x26;" horiz-adv-x="692" 
d="M557 -14l-78 109q-57 -54 -115 -79.5t-129 -25.5q-90 0 -148 48t-58 131q0 80 58.5 140t173.5 92q-44 74 -44 130q0 76 56 128.5t138 52.5q78 0 125 -42t47 -109q0 -131 -216 -193l125 -175q56 63 108 152l53 -34q-62 -102 -122 -168l85 -119zM332 418q177 49 177 139
q0 40 -27.5 65t-73.5 25q-49 0 -83 -34t-34 -82q0 -52 41 -113zM244 58q101 0 197 88l-145 204q-95 -24 -142 -70.5t-47 -104.5q0 -54 37 -85.5t100 -31.5z" />
    <glyph glyph-name="quotesingle" unicode="'" horiz-adv-x="245" 
d="M100 428l91 272h92l-1 -5l-139 -267h-43z" />
    <glyph glyph-name="parenleft" unicode="(" horiz-adv-x="434" 
d="M264 -141q-176 153 -176 357q0 156 100.5 289t295.5 212l27 -57q-174 -76 -259 -193.5t-85 -248.5q0 -94 37.5 -167.5t105.5 -143.5z" />
    <glyph glyph-name="parenright" unicode=")" horiz-adv-x="434" 
d="M-34 -139l-27 58q174 76 258.5 193t84.5 249q0 94 -37.5 167t-105.5 144l47 47q176 -153 176 -356q0 -157 -100.5 -290.5t-295.5 -211.5z" />
    <glyph glyph-name="asterisk" unicode="*" horiz-adv-x="430" 
d="M272 395l-51 13l43 119l-119 -43l-15 51l127 22l-99 82l39 38l81 -97l22 123l51 -13l-43 -118l119 43l15 -52l-127 -21l99 -82l-39 -38l-81 97z" />
    <glyph glyph-name="plus" unicode="+" horiz-adv-x="642" 
d="M244 110l55 206h-207l19 72h207l55 206h75l-55 -206h207l-19 -72h-207l-56 -206h-74z" />
    <glyph glyph-name="comma" unicode="," horiz-adv-x="255" 
d="M-37 -121l-8 34q82 21 94 87h-37l29 105h91l-24 -90q-18 -64 -51 -94.5t-94 -41.5z" />
    <glyph glyph-name="hyphen" unicode="-" horiz-adv-x="410" 
d="M66 260l21 81h279l-21 -81h-279z" />
    <glyph glyph-name="period" unicode="." horiz-adv-x="255" 
d="M12 0l29 105h91l-28 -105h-92z" />
    <glyph glyph-name="slash" unicode="/" horiz-adv-x="508" 
d="M-125 -128l707 926h78l-707 -926h-78z" />
    <glyph glyph-name="zero" unicode="0" horiz-adv-x="715" 
d="M322 -12q-115 0 -180 74.5t-65 195.5q0 83 27 164.5t74 145.5t116 104t147 40q115 0 180 -75t65 -195q0 -83 -27 -164.5t-74 -145.5t-116 -104t-147 -40zM327 60q74 0 139 57t101.5 145t36.5 180q0 88 -44.5 143t-124.5 55q-74 0 -138.5 -57t-101 -145t-36.5 -180
q0 -88 44 -143t124 -55z" />
    <glyph glyph-name="one" unicode="1" horiz-adv-x="361" 
d="M94 0l165 617l-142 -41l-2 69l188 60h59l-189 -705h-79z" />
    <glyph glyph-name="two" unicode="2" horiz-adv-x="595" 
d="M-22 0l16 62l401 304q61 46 89 84t28 81q0 48 -35.5 77.5t-97.5 29.5q-98 0 -192 -96l-52 50q111 118 247 118q94 0 153 -48.5t59 -125.5q0 -60 -36 -110.5t-114 -108.5l-323 -245h374l-19 -72h-498z" />
    <glyph glyph-name="three" unicode="3" horiz-adv-x="605" 
d="M248 -12q-89 0 -151 36t-94 100l62 40q59 -104 187 -104q83 0 138 44t55 111q0 59 -48 89t-133 30h-32l-10 45l283 250h-345l20 71h456l-16 -58l-285 -249q84 -7 138 -51.5t54 -120.5q0 -100 -81.5 -166.5t-197.5 -66.5z" />
    <glyph glyph-name="four" unicode="4" horiz-adv-x="649" 
d="M354 0l45 166h-364l-10 59l519 480h76l-127 -473h109l-18 -66h-109l-44 -166h-77zM129 232h288l96 357z" />
    <glyph glyph-name="five" unicode="5" horiz-adv-x="603" 
d="M251 -12q-81 0 -143 34.5t-99 90.5l61 45q72 -99 187 -99q89 0 146 51t57 121q0 62 -43 98t-114 36q-73 0 -143 -38l-45 36l110 337h391l-21 -73h-319l-74 -220q56 27 120 27q100 0 160.5 -53.5t60.5 -143.5q0 -103 -81.5 -176t-210.5 -73z" />
    <glyph glyph-name="six" unicode="6" horiz-adv-x="641" 
d="M316 -12q-108 0 -170 64q-69 69 -69 194q0 109 37.5 205t101.5 160q101 101 232 101q127 0 207 -90l-52 -54q-67 72 -161 72q-95 0 -169 -74q-42 -42 -71.5 -103.5t-36.5 -124.5q32 44 84.5 73t117.5 29q100 0 160.5 -57.5t60.5 -143.5q0 -102 -78.5 -176.5t-193.5 -74.5
zM318 57q81 0 135 52t54 124q0 57 -40.5 98t-114.5 41q-84 0 -138.5 -50.5t-54.5 -117.5q0 -64 41 -103q43 -44 118 -44z" />
    <glyph glyph-name="seven" unicode="7" horiz-adv-x="586" 
d="M61 0l461 628h-381l20 72h475l-17 -59l-466 -641h-92z" />
    <glyph glyph-name="eight" unicode="8" horiz-adv-x="647" 
d="M296 -10q-112 0 -185 53.5t-73 133.5t56.5 130t147.5 66q-45 18 -73 56.5t-28 88.5q0 80 71.5 136t181.5 56q104 0 170 -51t66 -130q0 -69 -48.5 -117t-124.5 -64q50 -18 84.5 -59t34.5 -96q0 -86 -79 -144.5t-201 -58.5zM376 390q81 0 128.5 39t47.5 92t-44 87t-116 34
q-76 0 -124.5 -37.5t-48.5 -93.5q0 -52 44 -86.5t113 -34.5zM301 58q87 0 140.5 38.5t54.5 100.5q0 53 -50.5 90.5t-131.5 37.5q-88 0 -142 -41t-54 -99q-1 -56 49.5 -91.5t133.5 -35.5z" />
    <glyph glyph-name="nine" unicode="9" horiz-adv-x="641" 
d="M243 -13q-128 0 -215 97l52 54q73 -79 167 -79t169 75q42 41 71 101t36 122q-31 -44 -83 -75t-120 -31q-100 0 -160.5 58.5t-60.5 146.5q1 105 79.5 180t194.5 75q105 0 170 -63q69 -71 69 -199q0 -107 -38 -202t-102 -159q-103 -101 -229 -101zM338 320q82 0 136.5 53
t54.5 123q0 62 -40 102q-45 45 -118 45q-82 0 -136 -53.5t-54 -127.5q-1 -59 40 -100.5t117 -41.5z" />
    <glyph glyph-name="colon" unicode=":" horiz-adv-x="262" 
d="M126 412l29 105h92l-29 -105h-92zM16 0l28 105h92l-28 -105h-92z" />
    <glyph glyph-name="semicolon" unicode=";" horiz-adv-x="262" 
d="M126 412l29 105h92l-29 -105h-92zM-33 -121l-8 34q81 21 93 87h-36l28 105h92l-24 -90q-18 -64 -51 -94.5t-94 -41.5z" />
    <glyph glyph-name="less" unicode="&#x3c;" horiz-adv-x="640" 
d="M484 86l-408 233l18 66l533 233l-22 -83l-436 -188l335 -189z" />
    <glyph glyph-name="equal" unicode="=" horiz-adv-x="640" 
d="M137 432l20 74h459l-19 -74h-460zM74 198l20 74h459l-20 -74h-459z" />
    <glyph glyph-name="greater" unicode="&#x3e;" horiz-adv-x="640" 
d="M46 86l22 83l435 188l-334 189l20 72l407 -233l-18 -66z" />
    <glyph glyph-name="question" unicode="?" horiz-adv-x="537" 
d="M189 198l28 162l6 5q109 8 173 50t64 111q0 52 -37 81.5t-96 29.5q-100 0 -182 -80l-45 52q100 100 235 100q94 0 150.5 -50.5t56.5 -126.5q0 -93 -72 -150t-190 -74l-40 -110h-51zM117 0l28 105h92l-28 -105h-92z" />
    <glyph glyph-name="at" unicode="@" horiz-adv-x="980" 
d="M482 -159q-189 0 -304 107.5t-115 283.5q0 127 65.5 237.5t178.5 177t246 66.5q181 0 288 -100.5t107 -250.5q0 -136 -66.5 -213.5t-148.5 -77.5q-52 0 -84 25t-41 69q-79 -96 -179 -96q-68 0 -113.5 45t-45.5 122q0 110 76 189t170 79q107 0 147 -98l27 88l65 -17
l-76 -244q-17 -53 1 -87.5t65 -34.5q59 0 112.5 67t53.5 184q0 135 -97.5 226t-260.5 91q-122 0 -227 -62t-165.5 -165t-60.5 -220q0 -160 105 -258.5t277 -98.5q109 0 206 45l15 -31q-105 -48 -221 -48zM449 131q70 0 129 59.5t59 134.5q0 52 -32 84.5t-85 32.5
q-71 0 -122.5 -59t-51.5 -141q0 -52 28.5 -81.5t74.5 -29.5z" />
    <glyph glyph-name="A" unicode="A" horiz-adv-x="761" 
d="M-40 0l508 705h76l130 -705h-81l-32 185h-382l-132 -185h-87zM229 256h319l-63 359z" />
    <glyph glyph-name="B" unicode="B" horiz-adv-x="717" 
d="M30 0l188 700h262q102 0 159.5 -44t57.5 -119q0 -72 -48.5 -120t-126.5 -64q124 -38 124 -145q0 -92 -79 -150t-215 -58h-322zM212 388h199q94 0 149.5 38t55.5 101q0 49 -37 75.5t-106 26.5h-197zM127 71h234q95 0 150 37.5t55 102.5q0 52 -44 79.5t-117 27.5h-212z" />
    <glyph glyph-name="C" unicode="C" horiz-adv-x="735" 
d="M383 -13q-127 0 -212.5 79t-85.5 211q0 112 56 212t153.5 161.5t210.5 61.5q93 0 160 -40.5t104 -109.5l-68 -42q-35 59 -82.5 89t-120.5 30q-134 0 -232 -109t-98 -250q0 -100 61 -159.5t158 -59.5q119 0 217 95l53 -52q-117 -117 -274 -117z" />
    <glyph glyph-name="D" unicode="D" horiz-adv-x="773" 
d="M30 0l188 700h169q178 0 273 -93q76 -76 76 -201q0 -161 -110 -273q-133 -133 -359 -133h-237zM129 73h148q179 0 289 110q88 88 88 218q0 98 -59 155q-71 71 -213 71h-104z" />
    <glyph glyph-name="E" unicode="E" horiz-adv-x="653" 
d="M30 0l188 700h501l-20 -72h-422l-64 -239h377l-20 -72h-376l-66 -245h427l-19 -72h-506z" />
    <glyph glyph-name="F" unicode="F" horiz-adv-x="658" 
d="M30 0l188 700h503l-19 -73h-425l-67 -250h380l-20 -72h-379l-82 -305h-79z" />
    <glyph glyph-name="G" unicode="G" horiz-adv-x="784" 
d="M396 -13q-132 0 -221 80.5t-89 217.5q0 108 55.5 206t155.5 159.5t219 61.5q179 0 264 -128l-60 -47q-35 49 -83.5 76t-127.5 27q-94 0 -173 -51t-123 -132t-44 -169q0 -106 64 -167t168 -61q102 0 181 49l55 194h-211l19 71h289l-89 -314q-117 -73 -249 -73z" />
    <glyph glyph-name="H" unicode="H" horiz-adv-x="756" 
d="M30 0l188 700h79l-83 -311h399l83 311h80l-188 -700h-80l85 315h-399l-85 -315h-79z" />
    <glyph glyph-name="I" unicode="I" horiz-adv-x="291" 
d="M37 0l188 700h79l-188 -700h-79z" />
    <glyph glyph-name="J" unicode="J" horiz-adv-x="548" 
d="M194 -10q-79 0 -131.5 40.5t-76.5 108.5l63 37q44 -113 146 -113q68 0 118 48q45 46 73 151l118 438h80l-122 -453q-33 -127 -95 -189q-68 -68 -173 -68z" />
    <glyph glyph-name="K" unicode="K" horiz-adv-x="718" 
d="M30 0l188 700h79l-111 -416l502 416h112l-376 -308l199 -392h-89l-174 346l-203 -167l-48 -179h-79z" />
    <glyph glyph-name="L" unicode="L" horiz-adv-x="607" 
d="M30 0l188 700h79l-168 -627h394l-20 -73h-473z" />
    <glyph glyph-name="M" unicode="M" horiz-adv-x="869" 
d="M30 0l188 700h74l151 -382l357 382h88l-188 -700h-80l152 567l-355 -375h-4l-153 374l-152 -566h-78z" />
    <glyph glyph-name="N" unicode="N" horiz-adv-x="786" 
d="M30 0l188 700h73l285 -568l153 568h77l-188 -700h-63l-292 581l-156 -581h-77z" />
    <glyph glyph-name="O" unicode="O" horiz-adv-x="842" 
d="M395 -13q-134 0 -220.5 87t-86.5 217q0 108 53 204.5t148 156.5t207 60q134 0 220.5 -87t86.5 -216q0 -108 -53 -205t-148 -157t-207 -60zM400 60q89 0 163.5 50t115.5 129.5t41 166.5q0 101 -63 167t-166 66q-89 0 -163.5 -50t-115.5 -129.5t-41 -166.5q0 -101 63 -167
t166 -66z" />
    <glyph glyph-name="P" unicode="P" horiz-adv-x="667" 
d="M30 0l188 700h219q134 0 200 -65q50 -52 50 -130q0 -120 -94 -188t-251 -68h-166l-67 -249h-79zM195 319h151q124 0 191.5 47.5t67.5 133.5q0 51 -32 83q-44 44 -139 44h-157z" />
    <glyph glyph-name="Q" unicode="Q" horiz-adv-x="842" 
d="M672 -29l-65 82q-98 -66 -212 -66q-134 0 -220.5 87t-86.5 217q0 108 53 204.5t148 156.5t207 60q134 0 220.5 -87t86.5 -216q0 -88 -37 -170t-102 -143l70 -79zM400 60q89 0 162 51l-109 128l62 47l102 -129q103 105 103 249q0 101 -63 167t-166 66q-89 0 -163.5 -50
t-115.5 -129.5t-41 -166.5q0 -101 63 -167t166 -66z" />
    <glyph glyph-name="R" unicode="R" horiz-adv-x="717" 
d="M30 0l188 700h252q131 0 197 -64q46 -48 46 -121q0 -88 -62 -152q-65 -65 -194 -83l144 -280h-91l-138 272h-190l-73 -272h-79zM201 343h190q135 0 199 64q42 44 42 102q0 47 -29 76q-42 42 -137 42h-188z" />
    <glyph glyph-name="S" unicode="S" horiz-adv-x="637" 
d="M298 -10q-190 0 -286 133l60 47q89 -109 231 -109q76 0 126.5 37t50.5 94q0 40 -31.5 68t-112.5 60q-103 41 -147.5 81.5t-44.5 105.5q0 87 72.5 145t185.5 58q157 0 248 -106l-58 -52q-79 87 -197 87q-76 0 -122 -36.5t-46 -86.5q0 -41 34 -68t121 -61q94 -36 137.5 -78
t43.5 -107q0 -92 -76 -152t-189 -60z" />
    <glyph glyph-name="T" unicode="T" horiz-adv-x="616" 
d="M196 0l168 627h-236l20 73h551l-20 -73h-236l-168 -627h-79z" />
    <glyph glyph-name="U" unicode="U" horiz-adv-x="758" 
d="M347 -11q-122 0 -188.5 61.5t-66.5 162.5q0 55 15 109l100 378h80l-106 -399q-10 -35 -10 -79q0 -72 46.5 -116t136.5 -44q91 0 156 64q61 63 89 171l109 403h79l-112 -417q-36 -133 -110 -207q-87 -87 -218 -87z" />
    <glyph glyph-name="V" unicode="V" horiz-adv-x="717" 
d="M247 -5l-110 705h84l86 -602l409 602h90l-488 -705h-71z" />
    <glyph glyph-name="W" unicode="W" horiz-adv-x="1083" 
d="M206 -5l-61 705h82l44 -583l347 585h65l37 -585l356 583h89l-439 -705h-69l-40 565l-343 -565h-68z" />
    <glyph glyph-name="X" unicode="X" horiz-adv-x="694" 
d="M-31 0l359 362l-176 338h87l146 -286l279 286h102l-346 -349l182 -351h-87l-152 299l-291 -299h-103z" />
    <glyph glyph-name="Y" unicode="Y" horiz-adv-x="663" 
d="M216 0l76 282l-173 418h88l140 -353l330 353h101l-410 -431l-72 -269h-80z" />
    <glyph glyph-name="Z" unicode="Z" horiz-adv-x="669" 
d="M-19 0l14 53l597 576h-427l20 71h542l-14 -53l-598 -576h446l-19 -71h-561z" />
    <glyph glyph-name="bracketleft" unicode="[" horiz-adv-x="439" 
d="M9 -130l223 830h286l-16 -60h-214l-190 -710h213l-16 -60h-286z" />
    <glyph glyph-name="backslash" unicode="\" horiz-adv-x="508" 
d="M357 -128l-218 926h66l218 -926h-66z" />
    <glyph glyph-name="bracketright" unicode="]" horiz-adv-x="439" 
d="M-66 -130l17 60h214l190 710h-214l16 60h287l-223 -830h-287z" />
    <glyph glyph-name="asciicircum" unicode="^" 
d="M117 493l211 209h60l100 -209h-61l-77 154l-159 -154h-74z" />
    <glyph glyph-name="underscore" unicode="_" horiz-adv-x="600" 
d="M-114 -160l17 63h605l-18 -63h-604z" />
    <glyph glyph-name="grave" unicode="`" 
d="M362 595l-83 108l81 37l56 -145h-54z" />
    <glyph glyph-name="a" unicode="a" horiz-adv-x="576" 
d="M182 -11q-69 0 -116 38.5t-47 104.5q0 86 64 136.5t166 50.5q85 0 183 -28l4 13q6 28 6 47q0 104 -139 104q-73 0 -146 -27l-14 65q83 32 172 32q97 0 150 -42.5t53 -118.5q0 -31 -10 -71l-78 -293h-76l21 81q-79 -92 -193 -92zM207 50q67 0 125.5 43t76.5 110l10 36
q-86 23 -167 23q-68 0 -111 -34t-43 -87q0 -41 29.5 -66t79.5 -25z" />
    <glyph glyph-name="b" unicode="b" horiz-adv-x="659" 
d="M319 -12q-139 0 -194 128l-31 -116h-77l196 730h77l-82 -302q89 100 196 100q89 0 147 -60.5t58 -158.5q0 -135 -87 -228t-203 -93zM312 56q91 0 153.5 73t62.5 173q0 72 -40 115t-106 43q-87 0 -158.5 -74.5t-71.5 -168.5q0 -68 45 -114.5t115 -46.5z" />
    <glyph glyph-name="c" unicode="c" horiz-adv-x="562" 
d="M277 -12q-95 0 -162 61.5t-67 164.5q0 127 90.5 220.5t213.5 93.5q76 0 127 -34t79 -87l-62 -39q-55 92 -149 92q-88 0 -154 -73.5t-66 -170.5q0 -73 45 -116.5t109 -43.5q78 0 153 68l45 -50q-91 -86 -202 -86z" />
    <glyph glyph-name="d" unicode="d" horiz-adv-x="659" 
d="M255 -12q-89 0 -147 61t-58 158q0 135 87 228t203 93q141 0 194 -128l88 330h77l-195 -730h-77l23 88q-88 -100 -195 -100zM277 56q87 0 158.5 75t71.5 169q0 68 -45 114t-115 46q-91 0 -153.5 -73t-62.5 -173q0 -71 40.5 -114.5t105.5 -43.5z" />
    <glyph glyph-name="e" unicode="e" horiz-adv-x="589" 
d="M126 229q-1 -6 -1 -18q0 -71 42 -113.5t114 -42.5q84 0 159 61l40 -51q-91 -77 -203 -77q-103 0 -166 61t-63 159q0 123 87.5 221.5t213.5 98.5q94 0 147 -56.5t53 -141.5q0 -50 -19 -101h-404zM137 291h333q4 20 4 39q0 57 -33 95t-96 38q-74 0 -129.5 -48.5
t-78.5 -123.5z" />
    <glyph glyph-name="f" unicode="f" horiz-adv-x="375" 
d="M46 0l121 449h-71l18 68h71l17 62q40 153 177 153q61 0 103 -22l-18 -66q-45 21 -85 21q-78 0 -104 -98l-13 -50h169l-19 -68h-168l-121 -449h-77z" />
    <glyph glyph-name="g" unicode="g" horiz-adv-x="659" 
d="M240 -162q-71 0 -138 24t-115 66l48 54q91 -78 204 -78q94 0 145 53q41 40 65 124l14 52q-91 -93 -198 -93q-86 0 -148 53t-62 142q0 125 88.5 209t201.5 84q132 0 190 -124l30 113h77l-118 -443q-30 -109 -84 -163q-73 -73 -200 -73zM287 106q87 0 154 64t67 144
q0 60 -43.5 103t-115.5 43q-85 0 -149 -62t-64 -153q0 -66 44 -102.5t107 -36.5z" />
    <glyph glyph-name="h" unicode="h" horiz-adv-x="613" 
d="M17 0l196 730h77l-80 -297q84 95 180 95q75 0 120 -43.5t45 -116.5q0 -30 -13 -80l-76 -288h-77l78 293q8 27 8 58q0 51 -31 79.5t-85 28.5q-60 0 -113.5 -47t-73.5 -120l-78 -292h-77z" />
    <glyph glyph-name="i" unicode="i" horiz-adv-x="264" 
d="M188 630l23 85h88l-23 -85h-88zM24 0l139 517h77l-139 -517h-77z" />
    <glyph glyph-name="j" unicode="j" horiz-adv-x="263" 
d="M188 630l23 85h88l-23 -85h-88zM-50 -163q-38 0 -69 9l18 65q23 -7 44 -7q55 0 74 70l146 543h77l-148 -551q-36 -129 -142 -129z" />
    <glyph glyph-name="k" unicode="k" horiz-adv-x="568" 
d="M17 0l196 730h77l-133 -497l348 284h105l-277 -223l142 -294h-87l-120 245l-138 -110l-36 -135h-77z" />
    <glyph glyph-name="l" unicode="l" horiz-adv-x="264" 
d="M24 0l196 730h77l-196 -730h-77z" />
    <glyph glyph-name="m" unicode="m" horiz-adv-x="950" 
d="M17 0l138 517h77l-22 -84q41 46 80.5 70.5t91.5 24.5q61 0 98 -33.5t49 -83.5q76 117 208 117q70 0 114 -44t44 -116q0 -17 -14 -80l-77 -288h-77l79 293q7 30 7 58q0 50 -28.5 79t-78.5 29q-57 0 -108.5 -47.5t-70.5 -119.5l-77 -292h-77l78 293q8 27 8 58q0 50 -29 79
t-79 29q-57 0 -108.5 -47.5t-70.5 -119.5l-78 -292h-77z" />
    <glyph glyph-name="n" unicode="n" horiz-adv-x="613" 
d="M17 0l138 517h77l-22 -84q84 95 180 95q75 0 120 -43.5t45 -116.5q0 -30 -13 -80l-76 -288h-77l78 293q8 27 8 58q0 51 -31 79.5t-85 28.5q-60 0 -113.5 -47t-73.5 -120l-78 -292h-77z" />
    <glyph glyph-name="o" unicode="o" horiz-adv-x="638" 
d="M284 -12q-105 0 -170 65t-65 167q0 122 90.5 215t213.5 93q106 0 171 -65t65 -166q0 -124 -91.5 -216.5t-213.5 -92.5zM289 57q87 0 154 72.5t67 164.5q0 78 -44.5 122t-117.5 44q-88 0 -154.5 -73.5t-66.5 -164.5q0 -77 44.5 -121t117.5 -44z" />
    <glyph glyph-name="p" unicode="p" horiz-adv-x="659" 
d="M-26 -160l181 677h77l-24 -89q89 100 196 100q89 0 147 -60.5t58 -158.5q0 -135 -87 -228t-203 -93q-139 0 -194 128l-74 -276h-77zM312 56q91 0 153.5 73t62.5 173q0 72 -40 115t-106 43q-87 0 -158.5 -74.5t-71.5 -168.5q0 -68 45 -114.5t115 -46.5z" />
    <glyph glyph-name="q" unicode="q" horiz-adv-x="659" 
d="M374 -200l77 289q-90 -101 -196 -101q-89 0 -147 61t-58 158q0 135 87 228t203 93q74 0 122.5 -35.5t71.5 -91.5l31 116h77l-191 -717h-77zM277 56q87 0 158.5 75t71.5 169q0 68 -45 114t-115 46q-91 0 -153.5 -73t-62.5 -173q0 -71 40.5 -114.5t105.5 -43.5z" />
    <glyph glyph-name="r" unicode="r" horiz-adv-x="402" 
d="M17 0l138 517h77l-35 -135q106 152 246 144l-22 -83h-5q-89 0 -163 -63t-104 -176l-55 -204h-77z" />
    <glyph glyph-name="s" unicode="s" horiz-adv-x="496" 
d="M217 -11q-133 0 -223 90l50 50q79 -76 180 -76q46 0 80 24t34 62q0 26 -21.5 46.5t-76.5 41.5q-76 30 -111 60.5t-35 81.5q0 68 54 113.5t142 45.5q54 0 105 -20.5t86 -50.5l-45 -53q-74 60 -153 60q-52 0 -82 -24t-30 -58q0 -26 21.5 -45.5t81.5 -42.5q74 -30 107.5 -62
t33.5 -80q0 -71 -57 -117t-141 -46z" />
    <glyph glyph-name="t" unicode="t" horiz-adv-x="401" 
d="M202 -9q-57 0 -91.5 26.5t-34.5 75.5q0 26 7 54l81 302h-71l18 68h72l42 156h76l-42 -156h163l-18 -68h-163l-80 -298q-4 -24 -4 -38q0 -53 71 -53q34 0 75 16l-19 -70q-37 -15 -82 -15z" />
    <glyph glyph-name="u" unicode="u" horiz-adv-x="613" 
d="M222 -11q-75 0 -119.5 43.5t-44.5 116.5q0 30 13 80l76 288h77l-79 -293q-7 -30 -7 -58q0 -51 30.5 -79.5t84.5 -28.5q61 0 114.5 47.5t72.5 120.5l78 291h77l-138 -517h-77l23 84q-84 -95 -181 -95z" />
    <glyph glyph-name="v" unicode="v" horiz-adv-x="566" 
d="M171 -4l-83 521h81l58 -429l286 429h87l-361 -521h-68z" />
    <glyph glyph-name="w" unicode="w" horiz-adv-x="848" 
d="M137 -4l-41 521h78l27 -412l250 414h64l29 -414l249 412h80l-322 -521h-68l-30 408l-249 -408h-67z" />
    <glyph glyph-name="x" unicode="x" horiz-adv-x="564" 
d="M-35 0l278 268l-130 249h85l98 -197l197 197h97l-263 -256l135 -261h-85l-103 210l-212 -210h-97z" />
    <glyph glyph-name="y" unicode="y" horiz-adv-x="574" 
d="M38 -163q-61 0 -113 36l42 58q33 -26 79 -26q67 0 135 96l-94 516h80l72 -431l278 431h87l-354 -534q-54 -79 -103.5 -112.5t-108.5 -33.5z" />
    <glyph glyph-name="z" unicode="z" horiz-adv-x="549" 
d="M-20 0l14 49l441 403h-321l18 65h432l-14 -49l-442 -403h338l-18 -65h-448z" />
    <glyph glyph-name="braceleft" unicode="{" horiz-adv-x="483" 
d="M311 -141q-86 18 -126 61t-40 102q0 37 23 111q10 31 10 59q0 33 -20 49t-71 16h-28l16 60h28q75 0 109 37.5t52 137.5q19 109 80 163t194 60l1 -55q-102 -6 -146 -49t-58 -132q-18 -103 -52.5 -144.5t-103.5 -52.5q73 -18 73 -84q0 -30 -11 -63q-21 -63 -21 -103
q0 -46 26 -76.5t89 -48.5z" />
    <glyph glyph-name="bar" unicode="|" horiz-adv-x="303" 
d="M139 -128v926h64v-926h-64z" />
    <glyph glyph-name="braceright" unicode="}" horiz-adv-x="483" 
d="M-40 -141l-1 55q101 6 145 49t59 132q18 103 52.5 144.5t103.5 52.5q-74 18 -74 84q0 27 12 63q21 70 21 103q0 46 -26 76.5t-89 48.5l24 48q165 -34 165 -163q0 -35 -22 -111q-11 -35 -11 -59q0 -33 20.5 -49t71.5 -16h27l-15 -60h-28q-75 0 -109 -37.5t-53 -137.5
q-19 -109 -79.5 -163t-193.5 -60z" />
    <glyph glyph-name="asciitilde" unicode="~" horiz-adv-x="473" 
d="M128 238l-50 22q51 106 118 106q34 0 70 -33q19 -18 28 -23.5t21 -5.5q17 0 30.5 14t31.5 45l49 -21q-49 -106 -117 -106q-15 0 -27.5 4.5t-20.5 10.5t-22 18q-32 29 -49 29t-30.5 -14t-31.5 -46z" />
    <glyph glyph-name="nbspace" unicode="&#xa0;" horiz-adv-x="300" 
 />
    <glyph glyph-name="exclamdown" unicode="&#xa1;" horiz-adv-x="271" 
d="M180 595l28 105h92l-29 -105h-91zM21 0l15 57l143 445h43l-95 -445l-16 -57h-90z" />
    <glyph glyph-name="cent" unicode="&#xa2;" horiz-adv-x="566" 
d="M204 105q-61 26 -96 80t-35 124q0 130 90 223t218 93q18 0 26 -1l33 82h64l-37 -93q88 -29 129 -110l-61 -39q-38 65 -97 84l-154 -393q16 -2 25 -2q90 0 166 66l45 -51q-91 -84 -212 -84q-27 0 -47 4l-37 -94h-64zM383 556h-5q-94 0 -160.5 -73t-66.5 -173
q0 -47 21.5 -83.5t59.5 -56.5z" />
    <glyph glyph-name="sterling" unicode="&#xa3;" horiz-adv-x="629" 
d="M-5 0l12 46l89 21l62 228h-84l19 69h83l33 121q27 103 80 154q67 69 169 69q131 0 194 -113l-65 -42q-25 41 -56 61.5t-78 20.5q-63 0 -107 -44q-41 -41 -62 -120l-29 -107h280l-19 -69h-280l-60 -225h356l-19 -70h-518z" />
    <glyph glyph-name="currency" unicode="&#xa4;" horiz-adv-x="694" 
d="M378 -12q-105 0 -174 67.5t-76 181.5h-95l17 63h79q3 57 19 108h-70l17 62h73q45 109 130.5 175.5t195.5 66.5q89 0 146 -43.5t82 -116.5l-68 -31q-26 59 -64.5 89t-104.5 30q-73 0 -133.5 -46.5t-96.5 -123.5h272l-17 -62h-279q-17 -61 -20 -108h271l-17 -63h-254
q5 -81 50 -129t119 -48q103 0 185 90l53 -46q-101 -116 -240 -116z" />
    <glyph glyph-name="yen" unicode="&#xa5;" horiz-adv-x="703" 
d="M240 0l31 116h-203l16 62h203l23 88h-203l17 62h177l-158 372h88l141 -344l326 344h99l-360 -372h174l-17 -62h-206l-23 -88h206l-17 -62h-206l-30 -116h-78z" />
    <glyph glyph-name="brokenbar" unicode="&#xa6;" horiz-adv-x="222" 
d="M148 411h-75v250h75v-250zM148 -89h-75v250h75v-250z" />
    <glyph glyph-name="section" unicode="&#xa7;" horiz-adv-x="632" 
d="M287 -10q-69 0 -129.5 24t-95.5 61l50 50q32 -31 80 -51t102 -20q46 0 77 18.5t31 48.5q0 27 -29 46.5t-100 43.5q-98 33 -143 64.5t-45 80.5q0 55 50 90t131 39q-66 36 -66 93q0 59 55.5 96t137.5 37q68 0 128.5 -24t95.5 -61l-49 -50q-75 71 -183 71q-46 0 -77 -18.5
t-31 -48.5q0 -27 29.5 -47t99.5 -43q98 -33 143 -64.5t45 -80.5q0 -55 -50 -90t-131 -39q66 -35 66 -93q0 -59 -55.5 -96t-136.5 -37zM394 257q52 0 88 23t36 55q0 27 -27.5 47t-92.5 41t-113 21q-52 0 -88 -23t-36 -55q0 -27 27.5 -47t92.5 -41q60 -21 113 -21z" />
    <glyph glyph-name="dieresis" unicode="&#xa8;" 
d="M375 595l26 95h89l-26 -95h-89zM198 595l26 95h90l-26 -95h-90z" />
    <glyph glyph-name="copyright" unicode="&#xa9;" horiz-adv-x="830" 
d="M438 -12q-151 0 -256 106t-105 255t106 256t257 107t256 -106t105 -255t-106 -256t-257 -107zM438 19q140 0 235 97t95 235t-94.5 234t-233.5 96q-140 0 -235 -97t-95 -235t94.5 -234t233.5 -96zM443 163q-79 0 -132.5 56t-53.5 136t53.5 136t133.5 56q82 0 144 -60
l-36 -40q-52 50 -108 50q-57 0 -94 -41t-37 -100t38 -100.5t93 -41.5q56 0 111 50l36 -35q-66 -66 -148 -66z" />
    <glyph glyph-name="ordfeminine" unicode="&#xaa;" horiz-adv-x="390" 
d="M190 407q-37 0 -61 21t-24 55q0 49 36.5 78t93.5 29q37 0 93 -15l2 6q4 14 4 24q0 53 -72 53q-40 0 -80 -15l-9 43q47 18 99 18q54 0 83.5 -23.5t29.5 -65.5q0 -14 -6 -40l-43 -162h-51l12 46q-47 -52 -107 -52zM56 289l12 47h250l-12 -47h-250zM207 446q35 0 67.5 24.5
t41.5 58.5l4 13q-40 11 -81 11q-36 0 -58.5 -18t-22.5 -46q0 -19 13.5 -31t35.5 -12z" />
    <glyph glyph-name="guillemotleft" unicode="&#xab;" horiz-adv-x="550" 
d="M372 39l-105 213l2 8l222 216l50 -42l-188 -187l82 -177zM150 39l-105 213l2 8l222 216l50 -42l-188 -187l82 -177z" />
    <glyph glyph-name="logicalnot" unicode="&#xac;" horiz-adv-x="640" 
d="M530 253h-75l48 178h-387l20 75h462z" />
    <glyph glyph-name="uni00AD" unicode="&#xad;" horiz-adv-x="410" 
d="M66 260l21 81h279l-21 -81h-279z" />
    <glyph glyph-name="registered" unicode="&#xae;" horiz-adv-x="830" 
d="M438 -12q-151 0 -256 106t-105 255t106 256t257 107t256 -106t105 -255t-106 -256t-257 -107zM438 19q140 0 235 97t95 235t-94.5 234t-233.5 96q-140 0 -235 -97t-95 -235t94.5 -234t233.5 -96zM297 175v371h166q62 0 100.5 -30.5t38.5 -81.5q0 -88 -95 -110l114 -149
h-67l-107 140h-95v-140h-55zM352 364h106q39 0 63.5 17.5t24.5 49.5q0 31 -22.5 48t-62.5 17h-109v-132z" />
    <glyph glyph-name="macron" unicode="&#xaf;" 
d="M182 600l17 67h317l-18 -67h-316z" />
    <glyph glyph-name="degree" unicode="&#xb0;" horiz-adv-x="387" 
d="M223 398q-60 0 -97.5 38t-37.5 96q0 70 51 122t122 52q59 0 97 -38t38 -95q0 -70 -51 -122.5t-122 -52.5zM228 450q45 0 78 36t33 82q0 39 -23 62.5t-60 23.5q-45 0 -78 -36t-33 -82q0 -39 23 -62.5t60 -23.5z" />
    <glyph glyph-name="plusminus" unicode="&#xb1;" horiz-adv-x="640" 
d="M571 302h-212l-44 -168h-78l45 168h-211l19 72h211l46 168h77l-45 -168h211zM491 14h-495l18 70h496z" />
    <glyph glyph-name="twosuperior" unicode="&#xb2;" 
d="M0 0v700h500v-700h-500zM81 49h339l-170 255zM49 96l171 254l-171 254v-508zM450 96v508l-171 -254zM250 395l170 255h-339z" />
    <glyph glyph-name="threesuperior" unicode="&#xb3;" 
d="M0 0v700h500v-700h-500zM81 49h339l-170 255zM49 96l171 254l-171 254v-508zM450 96v508l-171 -254zM250 395l170 255h-339z" />
    <glyph glyph-name="acute" unicode="&#xb4;" 
d="M239 595l134 145l80 -37l-142 -108h-72z" />
    <glyph glyph-name="mu" unicode="&#xb5;" horiz-adv-x="625" 
d="M219 -10q-79 0 -110 73q-12 -47 -59 -223h-76q153 572 181 677h77q-6 -22 -36 -132.5t-45 -169.5q-8 -31 -8 -59q0 -47 28.5 -72t81.5 -25q67 0 125 45.5t77 116.5l79 296h77l-138 -517h-77q5 21 23 86q-82 -96 -200 -96z" />
    <glyph glyph-name="paragraph" unicode="&#xb6;" horiz-adv-x="517" 
d="M268 0l66 249q-107 5 -171.5 51.5t-64.5 139.5q0 120 88 190t245 70h105l-188 -700h-80z" />
    <glyph glyph-name="periodcentered" unicode="&#xb7;" horiz-adv-x="255" 
d="M77 248l29 105h91l-28 -105h-92z" />
    <glyph glyph-name="cedilla" unicode="&#xb8;" 
d="M129 -155l-66 34l125 131h61z" />
    <glyph glyph-name="onesuperior" unicode="&#xb9;" 
d="M0 0v700h500v-700h-500zM81 49h339l-170 255zM49 96l171 254l-171 254v-508zM450 96v508l-171 -254zM250 395l170 255h-339z" />
    <glyph glyph-name="ordmasculine" unicode="&#xba;" horiz-adv-x="393" 
d="M245 405q-59 0 -96 36.5t-37 94.5q0 68 49.5 118.5t118.5 50.5q59 0 96 -37t37 -94q0 -68 -49.5 -118.5t-118.5 -50.5zM58 289l12 47h270l-12 -47h-270zM248 451q46 0 79 37t33 84q0 39 -23 63t-60 24q-46 0 -79 -36.5t-33 -84.5q0 -39 23 -63t60 -24z" />
    <glyph glyph-name="guillemotright" unicode="&#xbb;" horiz-adv-x="550" 
d="M279 38l-49 42l187 187l-82 177l63 31l105 -213l-2 -8zM58 38l-50 42l187 187l-82 177l63 31l105 -213l-2 -8z" />
    <glyph glyph-name="onequarter" unicode="&#xbc;" 
d="M0 0v700h500v-700h-500zM81 49h339l-170 255zM49 96l171 254l-171 254v-508zM450 96v508l-171 -254zM250 395l170 255h-339z" />
    <glyph glyph-name="onehalf" unicode="&#xbd;" 
d="M0 0v700h500v-700h-500zM81 49h339l-170 255zM49 96l171 254l-171 254v-508zM450 96v508l-171 -254zM250 395l170 255h-339z" />
    <glyph glyph-name="threequarters" unicode="&#xbe;" 
d="M0 0v700h500v-700h-500zM81 49h339l-170 255zM49 96l171 254l-171 254v-508zM450 96v508l-171 -254zM250 395l170 255h-339z" />
    <glyph glyph-name="questiondown" unicode="&#xbf;" horiz-adv-x="537" 
d="M349 595l28 105h92l-28 -105h-92zM251 -9q-94 0 -150.5 50.5t-56.5 126.5q0 93 72 150t190 74l40 110h50l-27 -162l-7 -5q-108 -8 -172 -50t-64 -111q0 -53 37 -82t96 -29q98 0 182 80l45 -52q-100 -100 -235 -100z" />
    <glyph glyph-name="Agrave" unicode="&#xc0;" horiz-adv-x="761" 
d="M-40 0l508 705h76l130 -705h-81l-32 185h-382l-132 -185h-87zM229 256h319l-63 359zM502 762l-83 108l81 37l56 -145h-54z" />
    <glyph glyph-name="Aacute" unicode="&#xc1;" horiz-adv-x="761" 
d="M-40 0l508 705h76l130 -705h-81l-32 185h-382l-132 -185h-87zM229 256h319l-63 359zM472 762l134 145l80 -37l-142 -108h-72z" />
    <glyph glyph-name="Acircumflex" unicode="&#xc2;" horiz-adv-x="761" 
d="M-40 0l508 705h76l130 -705h-81l-32 185h-382l-132 -185h-87zM229 256h319l-63 359zM374 762l141 131h68l71 -131h-62l-54 67l-96 -67h-68z" />
    <glyph glyph-name="Atilde" unicode="&#xc3;" horiz-adv-x="761" 
d="M-40 0l508 705h76l130 -705h-81l-32 185h-382l-132 -185h-87zM229 256h319l-63 359zM404 759l-49 21q51 106 117 106q22 0 36 -7.5t35 -25.5q30 -26 42 -28q3 -1 7 -1q17 0 30.5 14t31.5 46l49 -22q-51 -106 -117 -106q-32 0 -70 33q-32 29 -50 29q-28 0 -62 -59z" />
    <glyph glyph-name="Adieresis" unicode="&#xc4;" horiz-adv-x="761" 
d="M-40 0l508 705h76l130 -705h-81l-32 185h-382l-132 -185h-87zM229 256h319l-63 359zM567 762l26 95h89l-26 -95h-89zM390 762l26 95h90l-26 -95h-90z" />
    <glyph glyph-name="Aring" unicode="&#xc5;" horiz-adv-x="761" 
d="M-33 0l493 684q-40 23 -40 71q0 46 33 78.5t80 32.5q44 0 72 -25t28 -63q0 -35 -21.5 -63t-54.5 -40l125 -675h-82l-32 185h-381l-133 -185h-87zM520 705q29 0 49 21t20 51q0 22 -15 36t-41 14q-30 0 -50 -21t-20 -51q0 -22 15 -36t42 -14zM236 256h320l-64 359z" />
    <glyph glyph-name="AE" unicode="&#xc6;" horiz-adv-x="1065" 
d="M-40 0l599 700h560l-20 -72h-409l-64 -239h364l-19 -72h-364l-66 -245h414l-19 -72h-493l50 185h-284l-158 -185h-91zM268 256h243l100 374h-25z" />
    <glyph glyph-name="Ccedilla" unicode="&#xc7;" horiz-adv-x="735" 
d="M378 -13l-105 -142l-65 34l110 115q-103 19 -168 94.5t-65 188.5q0 112 56 212t153.5 161.5t210.5 61.5q93 0 160 -40.5t104 -109.5l-68 -42q-35 59 -82.5 89t-120.5 30q-134 0 -232 -109t-98 -250q0 -100 61 -159.5t158 -59.5q119 0 217 95l53 -52q-117 -117 -274 -117
h-5z" />
    <glyph glyph-name="Egrave" unicode="&#xc8;" horiz-adv-x="653" 
d="M30 0l188 700h501l-20 -72h-422l-64 -239h377l-20 -72h-376l-66 -245h427l-19 -72h-506zM466 762l-83 108l81 37l56 -145h-54z" />
    <glyph glyph-name="Eacute" unicode="&#xc9;" horiz-adv-x="653" 
d="M30 0l188 700h501l-20 -72h-422l-64 -239h377l-20 -72h-376l-66 -245h427l-19 -72h-506zM405 762l134 145l80 -37l-142 -108h-72z" />
    <glyph glyph-name="Ecircumflex" unicode="&#xca;" horiz-adv-x="653" 
d="M30 0l188 700h501l-20 -72h-422l-64 -239h377l-20 -72h-376l-66 -245h427l-19 -72h-506zM335 762l141 131h68l71 -131h-62l-54 67l-96 -67h-68z" />
    <glyph glyph-name="Edieresis" unicode="&#xcb;" horiz-adv-x="653" 
d="M30 0l188 700h501l-20 -72h-422l-64 -239h377l-20 -72h-376l-66 -245h427l-19 -72h-506zM523 762l26 95h89l-26 -95h-89zM346 762l26 95h90l-26 -95h-90z" />
    <glyph glyph-name="Igrave" unicode="&#xcc;" horiz-adv-x="291" 
d="M37 0l188 700h79l-188 -700h-79zM262 762l-83 108l81 37l56 -145h-54z" />
    <glyph glyph-name="Iacute" unicode="&#xcd;" horiz-adv-x="291" 
d="M37 0l188 700h79l-188 -700h-79zM226 762l134 145l80 -37l-142 -108h-72z" />
    <glyph glyph-name="Icircumflex" unicode="&#xce;" horiz-adv-x="291" 
d="M37 0l188 700h79l-188 -700h-79zM133 762l141 131h68l71 -131h-62l-54 67l-96 -67h-68z" />
    <glyph glyph-name="Idieresis" unicode="&#xcf;" horiz-adv-x="291" 
d="M37 0l188 700h79l-188 -700h-79zM325 762l26 95h89l-26 -95h-89zM148 762l26 95h90l-26 -95h-90z" />
    <glyph glyph-name="Eth" unicode="&#xd0;" horiz-adv-x="800" 
d="M57 0l85 316h-78l20 72h77l84 312h170q179 0 272 -93q77 -77 77 -201q0 -162 -111 -273q-133 -133 -359 -133h-237zM156 73h148q178 0 290 110q87 87 87 218q0 97 -58 155q-73 71 -214 71h-104l-64 -239h207l-19 -72h-208z" />
    <glyph glyph-name="Ntilde" unicode="&#xd1;" horiz-adv-x="786" 
d="M30 0l188 700h73l285 -568l153 568h77l-188 -700h-63l-292 581l-156 -581h-77zM401 759l-49 21q51 106 117 106q22 0 36 -7.5t35 -25.5q30 -26 42 -28q3 -1 7 -1q17 0 30.5 14t31.5 46l49 -22q-51 -106 -117 -106q-32 0 -70 33q-32 29 -50 29q-28 0 -62 -59z" />
    <glyph glyph-name="Ograve" unicode="&#xd2;" horiz-adv-x="842" 
d="M395 -13q-134 0 -220.5 87t-86.5 217q0 108 53 204.5t148 156.5t207 60q134 0 220.5 -87t86.5 -216q0 -108 -53 -205t-148 -157t-207 -60zM400 60q89 0 163.5 50t115.5 129.5t41 166.5q0 101 -63 167t-166 66q-89 0 -163.5 -50t-115.5 -129.5t-41 -166.5q0 -101 63 -167
t166 -66zM526 762l-83 108l81 37l56 -145h-54z" />
    <glyph glyph-name="Oacute" unicode="&#xd3;" horiz-adv-x="842" 
d="M395 -13q-134 0 -220.5 87t-86.5 217q0 108 53 204.5t148 156.5t207 60q134 0 220.5 -87t86.5 -216q0 -108 -53 -205t-148 -157t-207 -60zM400 60q89 0 163.5 50t115.5 129.5t41 166.5q0 101 -63 167t-166 66q-89 0 -163.5 -50t-115.5 -129.5t-41 -166.5q0 -101 63 -167
t166 -66zM454 762l134 145l80 -37l-142 -108h-72z" />
    <glyph glyph-name="Ocircumflex" unicode="&#xd4;" horiz-adv-x="842" 
d="M395 -13q-134 0 -220.5 87t-86.5 217q0 108 53 204.5t148 156.5t207 60q134 0 220.5 -87t86.5 -216q0 -108 -53 -205t-148 -157t-207 -60zM400 60q89 0 163.5 50t115.5 129.5t41 166.5q0 101 -63 167t-166 66q-89 0 -163.5 -50t-115.5 -129.5t-41 -166.5q0 -101 63 -167
t166 -66zM393 762l141 131h68l71 -131h-62l-54 67l-96 -67h-68z" />
    <glyph glyph-name="Otilde" unicode="&#xd5;" horiz-adv-x="842" 
d="M395 -13q-134 0 -220.5 87t-86.5 217q0 108 53 204.5t148 156.5t207 60q134 0 220.5 -87t86.5 -216q0 -108 -53 -205t-148 -157t-207 -60zM400 60q89 0 163.5 50t115.5 129.5t41 166.5q0 101 -63 167t-166 66q-89 0 -163.5 -50t-115.5 -129.5t-41 -166.5q0 -101 63 -167
t166 -66zM414 759l-49 21q51 106 117 106q22 0 36 -7.5t35 -25.5q30 -26 42 -28q3 -1 7 -1q17 0 30.5 14t31.5 46l49 -22q-51 -106 -117 -106q-32 0 -70 33q-32 29 -50 29q-28 0 -62 -59z" />
    <glyph glyph-name="Odieresis" unicode="&#xd6;" horiz-adv-x="842" 
d="M395 -13q-134 0 -220.5 87t-86.5 217q0 108 53 204.5t148 156.5t207 60q134 0 220.5 -87t86.5 -216q0 -108 -53 -205t-148 -157t-207 -60zM400 60q89 0 163.5 50t115.5 129.5t41 166.5q0 101 -63 167t-166 66q-89 0 -163.5 -50t-115.5 -129.5t-41 -166.5q0 -101 63 -167
t166 -66zM577 762l26 95h89l-26 -95h-89zM400 762l26 95h90l-26 -95h-90z" />
    <glyph glyph-name="multiply" unicode="&#xd7;" horiz-adv-x="640" 
d="M588 146l-51 -52l-60 60l-70.5 70.5l-59.5 59.5l-188 -190l-51 52l189 189l-189 189l51 52q187 -190 188 -191l190 191l51 -52l-189 -189z" />
    <glyph glyph-name="Oslash" unicode="&#xd8;" horiz-adv-x="842" 
d="M395 -13q-138 0 -224 93l-100 -85h-90l153 131q-46 72 -46 165q0 108 53 204.5t148 156.5t207 60q136 0 223 -90l96 83h90l-149 -129q47 -74 47 -167q0 -108 -53 -205t-148 -157t-207 -60zM195 177l465 396q-63 68 -169 68q-134 0 -228 -106.5t-94 -241.5q0 -64 26 -116z
M400 58q134 0 228 106.5t94 241.5q0 65 -28 119l-464 -396q63 -71 170 -71z" />
    <glyph glyph-name="Ugrave" unicode="&#xd9;" horiz-adv-x="758" 
d="M347 -11q-122 0 -188.5 61.5t-66.5 162.5q0 55 15 109l100 378h80l-106 -399q-10 -35 -10 -79q0 -72 46.5 -116t136.5 -44q91 0 156 64q61 63 89 171l109 403h79l-112 -417q-36 -133 -110 -207q-87 -87 -218 -87zM494 762l-83 108l81 37l56 -145h-54z" />
    <glyph glyph-name="Uacute" unicode="&#xda;" horiz-adv-x="758" 
d="M347 -11q-122 0 -188.5 61.5t-66.5 162.5q0 55 15 109l100 378h80l-106 -399q-10 -35 -10 -79q0 -72 46.5 -116t136.5 -44q91 0 156 64q61 63 89 171l109 403h79l-112 -417q-36 -133 -110 -207q-87 -87 -218 -87zM433 762l134 145l80 -37l-142 -108h-72z" />
    <glyph glyph-name="Ucircumflex" unicode="&#xdb;" horiz-adv-x="758" 
d="M347 -11q-122 0 -188.5 61.5t-66.5 162.5q0 55 15 109l100 378h80l-106 -399q-10 -35 -10 -79q0 -72 46.5 -116t136.5 -44q91 0 156 64q61 63 89 171l109 403h79l-112 -417q-36 -133 -110 -207q-87 -87 -218 -87zM365 762l141 131h68l71 -131h-62l-54 67l-96 -67h-68z
" />
    <glyph glyph-name="Udieresis" unicode="&#xdc;" horiz-adv-x="758" 
d="M347 -11q-122 0 -188.5 61.5t-66.5 162.5q0 55 15 109l100 378h80l-106 -399q-10 -35 -10 -79q0 -72 46.5 -116t136.5 -44q91 0 156 64q61 63 89 171l109 403h79l-112 -417q-36 -133 -110 -207q-87 -87 -218 -87zM553 762l26 95h89l-26 -95h-89zM376 762l26 95h90
l-26 -95h-90z" />
    <glyph glyph-name="Yacute" unicode="&#xdd;" horiz-adv-x="663" 
d="M216 0l76 282l-173 418h88l140 -353l330 353h101l-410 -431l-72 -269h-80zM385 762l134 145l80 -37l-142 -108h-72z" />
    <glyph glyph-name="Thorn" unicode="&#xde;" horiz-adv-x="674" 
d="M30 0l188 700h78l-31 -120h139q116 0 183 -50t67 -146q0 -121 -93.5 -188.5t-250.5 -67.5h-166l-35 -128h-79zM163 199h151q123 0 191 47.5t68 132.5q0 60 -44.5 94t-126.5 34h-157z" />
    <glyph glyph-name="germandbls" unicode="&#xdf;" horiz-adv-x="623" 
d="M222 -2l17 64q118 0 176.5 41.5t58.5 103.5q0 99 -163 125l16 60q200 47 200 171q0 47 -33.5 76.5t-89.5 29.5q-64 0 -110 -47.5t-69 -133.5l-131 -488h-77l135 501q30 113 95.5 174.5t161.5 61.5q86 0 140.5 -48t54.5 -121q0 -149 -196 -205q144 -42 144 -157
q0 -94 -86.5 -151t-243.5 -57z" />
    <glyph glyph-name="agrave" unicode="&#xe0;" horiz-adv-x="576" 
d="M182 -11q-69 0 -116 38.5t-47 104.5q0 86 64 136.5t166 50.5q85 0 183 -28l4 13q6 28 6 47q0 104 -139 104q-73 0 -146 -27l-14 65q83 32 172 32q97 0 150 -42.5t53 -118.5q0 -31 -10 -71l-78 -293h-76l21 81q-79 -92 -193 -92zM207 50q67 0 125.5 43t76.5 110l10 36
q-86 23 -167 23q-68 0 -111 -34t-43 -87q0 -41 29.5 -66t79.5 -25zM355 595l-83 108l81 37l56 -145h-54z" />
    <glyph glyph-name="aacute" unicode="&#xe1;" horiz-adv-x="576" 
d="M182 -11q-69 0 -116 38.5t-47 104.5q0 86 64 136.5t166 50.5q85 0 183 -28l4 13q6 28 6 47q0 104 -139 104q-73 0 -146 -27l-14 65q83 32 172 32q97 0 150 -42.5t53 -118.5q0 -31 -10 -71l-78 -293h-76l21 81q-79 -92 -193 -92zM207 50q67 0 125.5 43t76.5 110l10 36
q-86 23 -167 23q-68 0 -111 -34t-43 -87q0 -41 29.5 -66t79.5 -25zM296 595l134 145l80 -37l-142 -108h-72z" />
    <glyph glyph-name="acircumflex" unicode="&#xe2;" horiz-adv-x="576" 
d="M182 -11q-69 0 -116 38.5t-47 104.5q0 86 64 136.5t166 50.5q85 0 183 -28l4 13q6 28 6 47q0 104 -139 104q-73 0 -146 -27l-14 65q83 32 172 32q97 0 150 -42.5t53 -118.5q0 -31 -10 -71l-78 -293h-76l21 81q-79 -92 -193 -92zM207 50q67 0 125.5 43t76.5 110l10 36
q-86 23 -167 23q-68 0 -111 -34t-43 -87q0 -41 29.5 -66t79.5 -25zM228 595l141 131h68l71 -131h-62l-54 67l-96 -67h-68z" />
    <glyph glyph-name="atilde" unicode="&#xe3;" horiz-adv-x="576" 
d="M182 -11q-69 0 -116 38.5t-47 104.5q0 86 64 136.5t166 50.5q85 0 183 -28l4 13q6 28 6 47q0 104 -139 104q-73 0 -146 -27l-14 65q83 32 172 32q97 0 150 -42.5t53 -118.5q0 -31 -10 -71l-78 -293h-76l21 81q-79 -92 -193 -92zM207 50q67 0 125.5 43t76.5 110l10 36
q-86 23 -167 23q-68 0 -111 -34t-43 -87q0 -41 29.5 -66t79.5 -25zM254 592l-49 21q51 106 117 106q22 0 36 -7.5t35 -25.5q2 -1 5 -4q30 -24 44 -25q17 0 30.5 14t31.5 46l49 -22q-51 -106 -117 -106q-32 0 -70 33q-32 29 -50 29q-28 0 -62 -59z" />
    <glyph glyph-name="adieresis" unicode="&#xe4;" horiz-adv-x="576" 
d="M182 -11q-69 0 -116 38.5t-47 104.5q0 86 64 136.5t166 50.5q85 0 183 -28l4 13q6 28 6 47q0 104 -139 104q-73 0 -146 -27l-14 65q83 32 172 32q97 0 150 -42.5t53 -118.5q0 -31 -10 -71l-78 -293h-76l21 81q-79 -92 -193 -92zM207 50q67 0 125.5 43t76.5 110l10 36
q-86 23 -167 23q-68 0 -111 -34t-43 -87q0 -41 29.5 -66t79.5 -25zM411 595l26 95h89l-26 -95h-89zM234 595l26 95h90l-26 -95h-90z" />
    <glyph glyph-name="aring" unicode="&#xe5;" horiz-adv-x="576" 
d="M182 -11q-69 0 -116 38.5t-47 104.5q0 86 64 136.5t166 50.5q85 0 183 -28l4 13q6 28 6 47q0 104 -139 104q-73 0 -146 -27l-14 65q83 32 172 32q97 0 150 -42.5t53 -118.5q0 -31 -10 -71l-78 -293h-76l21 81q-79 -92 -193 -92zM207 50q67 0 125.5 43t76.5 110l10 36
q-86 23 -167 23q-68 0 -111 -34t-43 -87q0 -41 29.5 -66t79.5 -25zM385 594q-44 0 -71.5 25t-27.5 63q0 46 33 78.5t80 32.5q44 0 72 -25t28 -63q0 -46 -33.5 -78.5t-80.5 -32.5zM386 633q30 0 49.5 21t19.5 51q0 22 -15 36t-41 14q-30 0 -50 -21t-20 -51q0 -22 15 -36
t42 -14z" />
    <glyph glyph-name="ae" unicode="&#xe6;" horiz-adv-x="958" 
d="M445 107q-115 -118 -263 -118q-69 0 -116 38.5t-47 104.5q0 86 64 136.5t166 50.5q85 0 183 -28l4 13q6 28 6 47q0 104 -139 104q-73 0 -146 -27l-14 65q83 32 172 32q73 0 123.5 -28.5t66.5 -79.5q89 111 215 111q94 0 146.5 -56.5t52.5 -141.5q0 -50 -19 -101h-404
q-1 -6 -1 -18q0 -71 42 -113.5t114 -42.5q83 0 160 61l40 -51q-91 -77 -202 -77q-73 0 -126 31.5t-78 87.5zM507 291h333q4 20 4 39q0 57 -33 95t-96 38q-74 0 -129.5 -48.5t-78.5 -123.5zM427 237q-86 25 -175 25q-68 0 -111 -34t-43 -87q0 -41 29.5 -66t79.5 -25
q119 0 222 109q-5 30 -5 54q0 9 3 24z" />
    <glyph glyph-name="ccedilla" unicode="&#xe7;" horiz-adv-x="562" 
d="M217 -5q-73 18 -121 76t-48 143q0 127 90.5 220.5t213.5 93.5q76 0 127 -34t79 -87l-62 -39q-55 92 -149 92q-88 0 -154 -73.5t-66 -170.5q0 -73 45 -116.5t109 -43.5q78 0 153 68l45 -50q-91 -86 -201 -86h-2l-104 -143l-66 34z" />
    <glyph glyph-name="egrave" unicode="&#xe8;" horiz-adv-x="589" 
d="M126 229q-1 -6 -1 -18q0 -71 42 -113.5t114 -42.5q84 0 159 61l40 -51q-91 -77 -203 -77q-103 0 -166 61t-63 159q0 123 87.5 221.5t213.5 98.5q94 0 147 -56.5t53 -141.5q0 -50 -19 -101h-404zM137 291h333q4 20 4 39q0 57 -33 95t-96 38q-74 0 -129.5 -48.5
t-78.5 -123.5zM359 595l-83 108l81 37l56 -145h-54z" />
    <glyph glyph-name="eacute" unicode="&#xe9;" horiz-adv-x="589" 
d="M126 229q-1 -6 -1 -18q0 -71 42 -113.5t114 -42.5q84 0 159 61l40 -51q-91 -77 -203 -77q-103 0 -166 61t-63 159q0 123 87.5 221.5t213.5 98.5q94 0 147 -56.5t53 -141.5q0 -50 -19 -101h-404zM137 291h333q4 20 4 39q0 57 -33 95t-96 38q-74 0 -129.5 -48.5
t-78.5 -123.5zM303 595l134 145l80 -37l-142 -108h-72z" />
    <glyph glyph-name="ecircumflex" unicode="&#xea;" horiz-adv-x="589" 
d="M126 229q-1 -6 -1 -18q0 -71 42 -113.5t114 -42.5q84 0 159 61l40 -51q-91 -77 -203 -77q-103 0 -166 61t-63 159q0 123 87.5 221.5t213.5 98.5q94 0 147 -56.5t53 -141.5q0 -50 -19 -101h-404zM137 291h333q4 20 4 39q0 57 -33 95t-96 38q-74 0 -129.5 -48.5
t-78.5 -123.5zM228 595l141 131h68l71 -131h-62l-54 67l-96 -67h-68z" />
    <glyph glyph-name="edieresis" unicode="&#xeb;" horiz-adv-x="589" 
d="M126 229q-1 -6 -1 -18q0 -71 42 -113.5t114 -42.5q84 0 159 61l40 -51q-91 -77 -203 -77q-103 0 -166 61t-63 159q0 123 87.5 221.5t213.5 98.5q94 0 147 -56.5t53 -141.5q0 -50 -19 -101h-404zM137 291h333q4 20 4 39q0 57 -33 95t-96 38q-74 0 -129.5 -48.5
t-78.5 -123.5zM416 595l26 95h89l-26 -95h-89zM239 595l26 95h90l-26 -95h-90z" />
    <glyph glyph-name="igrave" unicode="&#xec;" horiz-adv-x="264" 
d="M24 0l139 517h77l-139 -517h-77zM187 595l-83 108l81 37l56 -145h-54z" />
    <glyph glyph-name="iacute" unicode="&#xed;" horiz-adv-x="264" 
d="M24 0l139 517h77l-139 -517h-77zM172 595l134 145l80 -37l-142 -108h-72z" />
    <glyph glyph-name="icircumflex" unicode="&#xee;" horiz-adv-x="264" 
d="M24 0l139 517h77l-139 -517h-77zM74 595l141 131h68l71 -131h-62l-54 67l-96 -67h-68z" />
    <glyph glyph-name="idieresis" unicode="&#xef;" horiz-adv-x="264" 
d="M24 0l139 517h77l-139 -517h-77zM262 595l26 95h89l-26 -95h-89zM85 595l26 95h90l-26 -95h-90z" />
    <glyph glyph-name="eth" unicode="&#xf0;" horiz-adv-x="622" 
d="M275 -11q-100 0 -165 62t-65 157q0 114 82.5 195.5t192.5 81.5q90 0 153 -54l-78 181l-149 -63l-26 50l153 64l-30 67h84l16 -39l113 48l25 -50l-117 -49l64 -157q46 -114 46 -194q0 -121 -84.5 -210.5t-214.5 -89.5zM281 57q88 0 150.5 63t62.5 150q0 66 -45 110
t-122 44q-84 0 -144.5 -63t-60.5 -149q0 -71 44.5 -113t114.5 -42z" />
    <glyph glyph-name="ntilde" unicode="&#xf1;" horiz-adv-x="613" 
d="M17 0l138 517h77l-22 -84q84 95 180 95q75 0 120 -43.5t45 -116.5q0 -30 -13 -80l-76 -288h-77l78 293q8 27 8 58q0 51 -31 79.5t-85 28.5q-60 0 -113.5 -47t-73.5 -120l-78 -292h-77zM273 592l-49 21q51 106 117 106q22 0 36 -7.5t35 -25.5q2 -1 5 -4q30 -24 44 -25
q17 0 30.5 14t31.5 46l49 -22q-51 -106 -117 -106q-32 0 -70 33q-32 29 -50 29q-28 0 -62 -59z" />
    <glyph glyph-name="ograve" unicode="&#xf2;" horiz-adv-x="638" 
d="M284 -12q-105 0 -170 65t-65 167q0 122 90.5 215t213.5 93q106 0 171 -65t65 -166q0 -124 -91.5 -216.5t-213.5 -92.5zM289 57q87 0 154 72.5t67 164.5q0 78 -44.5 122t-117.5 44q-88 0 -154.5 -73.5t-66.5 -164.5q0 -77 44.5 -121t117.5 -44zM370 595l-83 108l81 37
l56 -145h-54z" />
    <glyph glyph-name="oacute" unicode="&#xf3;" horiz-adv-x="638" 
d="M284 -12q-105 0 -170 65t-65 167q0 122 90.5 215t213.5 93q106 0 171 -65t65 -166q0 -124 -91.5 -216.5t-213.5 -92.5zM289 57q87 0 154 72.5t67 164.5q0 78 -44.5 122t-117.5 44q-88 0 -154.5 -73.5t-66.5 -164.5q0 -77 44.5 -121t117.5 -44zM312 595l134 145l80 -37
l-142 -108h-72z" />
    <glyph glyph-name="ocircumflex" unicode="&#xf4;" horiz-adv-x="638" 
d="M284 -12q-105 0 -170 65t-65 167q0 122 90.5 215t213.5 93q106 0 171 -65t65 -166q0 -124 -91.5 -216.5t-213.5 -92.5zM289 57q87 0 154 72.5t67 164.5q0 78 -44.5 122t-117.5 44q-88 0 -154.5 -73.5t-66.5 -164.5q0 -77 44.5 -121t117.5 -44zM254 595l141 131h68
l71 -131h-62l-54 67l-96 -67h-68z" />
    <glyph glyph-name="otilde" unicode="&#xf5;" horiz-adv-x="638" 
d="M284 -12q-105 0 -170 65t-65 167q0 122 90.5 215t213.5 93q106 0 171 -65t65 -166q0 -124 -91.5 -216.5t-213.5 -92.5zM289 57q87 0 154 72.5t67 164.5q0 78 -44.5 122t-117.5 44q-88 0 -154.5 -73.5t-66.5 -164.5q0 -77 44.5 -121t117.5 -44zM274 592l-49 21
q51 106 117 106q22 0 36 -7.5t35 -25.5q2 -1 5 -4q30 -24 44 -25q17 0 30.5 14t31.5 46l49 -22q-51 -106 -117 -106q-32 0 -70 33q-32 29 -50 29q-28 0 -62 -59z" />
    <glyph glyph-name="odieresis" unicode="&#xf6;" horiz-adv-x="638" 
d="M284 -12q-105 0 -170 65t-65 167q0 122 90.5 215t213.5 93q106 0 171 -65t65 -166q0 -124 -91.5 -216.5t-213.5 -92.5zM289 57q87 0 154 72.5t67 164.5q0 78 -44.5 122t-117.5 44q-88 0 -154.5 -73.5t-66.5 -164.5q0 -77 44.5 -121t117.5 -44zM429 595l26 95h89l-26 -95
h-89zM252 595l26 95h90l-26 -95h-90z" />
    <glyph glyph-name="divide" unicode="&#xf7;" horiz-adv-x="640" 
d="M244 110l28 103h89l-28 -103h-89zM113 317l21 74h461l-20 -74h-462zM348 494l27 103h88l-27 -103h-88z" />
    <glyph glyph-name="oslash" unicode="&#xf8;" horiz-adv-x="638" 
d="M284 -12q-102 0 -169 65l-70 -58h-85l120 101q-31 54 -31 124q0 122 90.5 215t213.5 93q105 0 168 -63l71 58h85l-121 -101q33 -54 33 -125q0 -124 -91.5 -216.5t-213.5 -92.5zM141 146l325 272q-43 43 -117 43q-89 0 -156 -73.5t-67 -165.5q0 -39 15 -76zM288 55
q88 0 155.5 73t67.5 166q0 44 -15 79l-326 -274q44 -44 118 -44z" />
    <glyph glyph-name="ugrave" unicode="&#xf9;" horiz-adv-x="613" 
d="M222 -11q-75 0 -119.5 43.5t-44.5 116.5q0 30 13 80l76 288h77l-79 -293q-7 -30 -7 -58q0 -51 30.5 -79.5t84.5 -28.5q61 0 114.5 47.5t72.5 120.5l78 291h77l-138 -517h-77l23 84q-84 -95 -181 -95zM369 595l-83 108l81 37l56 -145h-54z" />
    <glyph glyph-name="uacute" unicode="&#xfa;" horiz-adv-x="613" 
d="M222 -11q-75 0 -119.5 43.5t-44.5 116.5q0 30 13 80l76 288h77l-79 -293q-7 -30 -7 -58q0 -51 30.5 -79.5t84.5 -28.5q61 0 114.5 47.5t72.5 120.5l78 291h77l-138 -517h-77l23 84q-84 -95 -181 -95zM321 595l134 145l80 -37l-142 -108h-72z" />
    <glyph glyph-name="ucircumflex" unicode="&#xfb;" horiz-adv-x="613" 
d="M222 -11q-75 0 -119.5 43.5t-44.5 116.5q0 30 13 80l76 288h77l-79 -293q-7 -30 -7 -58q0 -51 30.5 -79.5t84.5 -28.5q61 0 114.5 47.5t72.5 120.5l78 291h77l-138 -517h-77l23 84q-84 -95 -181 -95zM245 595l141 131h68l71 -131h-62l-54 67l-96 -67h-68z" />
    <glyph glyph-name="udieresis" unicode="&#xfc;" horiz-adv-x="613" 
d="M222 -11q-75 0 -119.5 43.5t-44.5 116.5q0 30 13 80l76 288h77l-79 -293q-7 -30 -7 -58q0 -51 30.5 -79.5t84.5 -28.5q61 0 114.5 47.5t72.5 120.5l78 291h77l-138 -517h-77l23 84q-84 -95 -181 -95zM431 595l26 95h89l-26 -95h-89zM254 595l26 95h90l-26 -95h-90z" />
    <glyph glyph-name="yacute" unicode="&#xfd;" horiz-adv-x="574" 
d="M38 -163q-61 0 -113 36l42 58q33 -26 79 -26q67 0 135 96l-94 516h80l72 -431l278 431h87l-354 -534q-54 -79 -103.5 -112.5t-108.5 -33.5zM295 595l134 145l80 -37l-142 -108h-72z" />
    <glyph glyph-name="thorn" unicode="&#xfe;" horiz-adv-x="659" 
d="M-26 -160l239 890h77l-82 -302q89 100 196 100q89 0 147 -60.5t58 -158.5q0 -135 -87 -228t-203 -93q-139 0 -194 128l-74 -276h-77zM312 56q91 0 153.5 73t62.5 173q0 72 -40 115t-106 43q-87 0 -158.5 -74.5t-71.5 -168.5q0 -68 45 -114.5t115 -46.5z" />
    <glyph glyph-name="ydieresis" unicode="&#xff;" horiz-adv-x="574" 
d="M38 -163q-61 0 -113 36l42 58q33 -26 79 -26q67 0 135 96l-94 516h80l72 -431l278 431h87l-354 -534q-54 -79 -103.5 -112.5t-108.5 -33.5zM405 595l26 95h89l-26 -95h-89zM228 595l26 95h90l-26 -95h-90z" />
    <glyph glyph-name="dotlessi" unicode="&#x131;" horiz-adv-x="264" 
d="M24 0l139 517h77l-139 -517h-77z" />
    <glyph glyph-name="Lslash" unicode="&#x141;" horiz-adv-x="652" 
d="M74 0l81 301l-80 -22l19 73l81 23l87 325h79l-81 -301l234 66l-20 -74l-234 -66l-68 -252h396l-20 -73h-474z" />
    <glyph glyph-name="lslash" unicode="&#x142;" horiz-adv-x="322" 
d="M54 0l86 320l-81 -23l20 75l81 23l90 335h77l-84 -312l83 24l-20 -75l-83 -24l-92 -343h-77z" />
    <glyph glyph-name="OE" unicode="&#x152;" horiz-adv-x="1132" 
d="M435 0q-180 0 -274 94q-76 76 -76 200q0 160 111 273q133 133 359 133h630l-19 -72h-409l-64 -239h363l-19 -72h-363l-66 -245h414l-20 -72h-567zM440 73h89l149 554h-133q-178 0 -290 -110q-87 -87 -87 -218q0 -97 58 -155q73 -71 214 -71z" />
    <glyph glyph-name="oe" unicode="&#x153;" horiz-adv-x="1041" 
d="M579 229q-1 -6 -1 -18q0 -71 42 -113.5t114 -42.5q84 0 159 61l41 -51q-91 -77 -202 -77q-78 0 -133.5 38t-74.5 102q-41 -63 -102.5 -101.5t-139.5 -38.5q-103 0 -168 65.5t-65 166.5q0 122 90.5 215t213.5 93q81 0 135.5 -41t73.5 -106q89 147 240 147q94 0 147 -56.5
t53 -141.5q0 -50 -19 -101h-404zM590 291h333q4 20 4 39q0 57 -33 95t-96 38q-74 0 -129.5 -48.5t-78.5 -123.5zM289 57q87 0 154 70.5t67 162.5q0 79 -44.5 124.5t-117.5 45.5q-89 0 -155 -72.5t-66 -164.5q0 -77 44.5 -121.5t117.5 -44.5z" />
    <glyph glyph-name="Scaron" unicode="&#x160;" horiz-adv-x="637" 
d="M298 -10q-190 0 -286 133l60 47q89 -109 231 -109q76 0 126.5 37t50.5 94q0 40 -31.5 68t-112.5 60q-103 41 -147.5 81.5t-44.5 105.5q0 87 72.5 145t185.5 58q157 0 248 -106l-58 -52q-79 87 -197 87q-76 0 -122 -36.5t-46 -86.5q0 -41 34 -68t121 -61q94 -36 137.5 -78
t43.5 -107q0 -92 -76 -152t-189 -60zM403 762l-71 131h62l55 -67l96 67h68l-142 -131h-68z" />
    <glyph glyph-name="scaron" unicode="&#x161;" horiz-adv-x="496" 
d="M217 -11q-133 0 -223 90l50 50q79 -76 180 -76q46 0 80 24t34 62q0 26 -21.5 46.5t-76.5 41.5q-76 30 -111 60.5t-35 81.5q0 68 54 113.5t142 45.5q54 0 105 -20.5t86 -50.5l-45 -53q-74 60 -153 60q-52 0 -82 -24t-30 -58q0 -26 21.5 -45.5t81.5 -42.5q74 -30 107.5 -62
t33.5 -80q0 -71 -57 -117t-141 -46zM296 595l-71 131h62l55 -67l96 67h68l-142 -131h-68z" />
    <glyph glyph-name="Ydieresis" unicode="&#x178;" horiz-adv-x="663" 
d="M216 0l76 282l-173 418h88l140 -353l330 353h101l-410 -431l-72 -269h-80zM497 762l26 95h89l-26 -95h-89zM320 762l26 95h90l-26 -95h-90z" />
    <glyph glyph-name="Zcaron" unicode="&#x17d;" horiz-adv-x="669" 
d="M-19 0l14 53l597 576h-427l20 71h542l-14 -53l-598 -576h446l-19 -71h-561zM416 762l-71 131h62l55 -67l96 67h68l-142 -131h-68z" />
    <glyph glyph-name="zcaron" unicode="&#x17e;" horiz-adv-x="549" 
d="M-20 0l14 49l441 403h-321l18 65h432l-14 -49l-442 -403h338l-18 -65h-448zM316 595l-71 131h62l55 -67l96 67h68l-142 -131h-68z" />
    <glyph glyph-name="florin" unicode="&#x192;" horiz-adv-x="531" 
d="M41 -10q-37 0 -66 9l19 64q26 -7 47 -7q60 0 102 95l98 222h-97l18 67h108l54 121q65 149 185 149q51 0 93 -17l-20 -64q-35 14 -72 14q-73 0 -119 -103l-44 -100h150l-17 -67h-162l-107 -243q-33 -76 -74.5 -108t-95.5 -32z" />
    <glyph glyph-name="circumflex" unicode="&#x2c6;" 
d="M201 595l141 131h68l71 -131h-62l-54 67l-96 -67h-68z" />
    <glyph glyph-name="caron" unicode="&#x2c7;" 
d="M305 595l-71 131h62l55 -67l96 67h68l-142 -131h-68z" />
    <glyph glyph-name="breve" unicode="&#x2d8;" 
d="M344 593q-57 0 -89 30t-32 78q0 15 3 25h57q0 -69 72 -69q66 0 105 69h62q-20 -61 -69 -97t-109 -36z" />
    <glyph glyph-name="dotaccent" unicode="&#x2d9;" 
d="M295 594l27 98h89l-27 -98h-89z" />
    <glyph glyph-name="ring" unicode="&#x2da;" 
d="M358 594q-44 0 -71.5 25t-27.5 63q0 46 33 78.5t80 32.5q44 0 72 -25t28 -63q0 -46 -33.5 -78.5t-80.5 -32.5zM359 633q30 0 49.5 21t19.5 51q0 22 -15 36t-41 14q-30 0 -50 -21t-20 -51q0 -22 15 -36t42 -14z" />
    <glyph glyph-name="ogonek" unicode="&#x2db;" 
d="M228 -164q-75 -4 -114 18.5t-39 62.5t37 93h59q-23 -44 -23 -76q0 -53 90 -57z" />
    <glyph glyph-name="tilde" unicode="&#x2dc;" 
d="M229 592l-49 21q51 106 117 106q22 0 36 -7.5t35 -25.5q2 -1 5 -4q30 -24 44 -25q17 0 30.5 14t31.5 46l49 -22q-51 -106 -117 -106q-32 0 -70 33q-32 29 -50 29q-28 0 -62 -59z" />
    <glyph glyph-name="hungarumlaut" unicode="&#x2dd;" 
d="M337 595l135 145l65 -37l-139 -108h-61zM173 595l135 145l64 -37l-137 -108h-62z" />
    <glyph glyph-name="Omega" unicode="&#x3a9;" horiz-adv-x="789" 
d="M641 0h-253l51 189q103 16 172 93t69 183q0 76 -54 125t-139 49q-122 0 -211.5 -81t-89.5 -206q0 -60 32.5 -108t92.5 -55l-50 -189h-253l18 66h192l20 76q-63 18 -97 77.5t-34 132.5q0 80 33.5 148.5t89 113t125 69.5t142.5 25q117 0 190.5 -68t73.5 -169
q0 -114 -78 -207t-197 -122q-8 -32 -20 -76h192z" />
    <glyph glyph-name="pi" unicode="&#x3c0;" 
d="M0 0v700h500v-700h-500zM81 49h339l-170 255zM49 96l171 254l-171 254v-508zM450 96v508l-171 -254zM250 395l170 255h-339z" />
    <glyph glyph-name="afii10023" unicode="&#x401;" horiz-adv-x="653" 
d="M520 763l26 95h89l-26 -95h-89zM343 763l26 95h90l-26 -95h-90zM30 0l188 700h501l-20 -72h-422l-64 -239h377l-20 -72h-376l-66 -245h427l-19 -72h-506z" />
    <glyph glyph-name="afii10051" unicode="&#x402;" horiz-adv-x="836" 
d="M493 -23q-79 0 -116 22q15 29 32 66q32 -15 78 -15q93 0 148.5 57.5t55.5 145.5q0 51 -36 86.5t-96 35.5q-66 0 -119 -19t-114 -63l-78 -293h-79l169 628h-210q15 53 20 72h555q-19 -67 -20 -72h-267l-69 -256q63 40 117 58t119 18q85 0 140 -50t55 -133
q0 -123 -79.5 -205.5t-205.5 -82.5z" />
    <glyph glyph-name="afii10052" unicode="&#x403;" horiz-adv-x="590" 
d="M366 763l134 145l80 -37l-142 -108h-72zM30 0l187 700h456l-19 -72h-377l-168 -628h-79z" />
    <glyph glyph-name="afii10053" unicode="&#x404;" horiz-adv-x="735" 
d="M380 -13q-127 0 -212 79t-85 211q0 111 54.5 211t151.5 162t212 62q88 0 153.5 -36.5t102.5 -98.5l-67 -43q-68 106 -193 106q-110 0 -196.5 -73t-118.5 -181h342q-12 -44 -17 -66h-337q-1 -8 -1 -23q0 -110 57 -174t159 -64q123 0 221 98l50 -51q-115 -119 -276 -119z
" />
    <glyph glyph-name="afii10054" unicode="&#x405;" horiz-adv-x="637" 
d="M298 -10q-190 0 -286 133l60 47q89 -109 231 -109q76 0 126.5 37t50.5 94q0 40 -31.5 68t-112.5 60q-103 41 -147.5 81.5t-44.5 105.5q0 87 72.5 145t185.5 58q157 0 248 -106l-58 -52q-79 87 -197 87q-76 0 -122 -36.5t-46 -86.5q0 -41 34 -68t121 -61q94 -36 137.5 -78
t43.5 -107q0 -92 -76 -152t-189 -60z" />
    <glyph glyph-name="afii10055" unicode="&#x406;" horiz-adv-x="291" 
d="M37 0l188 700h79l-188 -700h-79z" />
    <glyph glyph-name="afii10056" unicode="&#x407;" horiz-adv-x="291" 
d="M316 763l26 95h89l-26 -95h-89zM139 763l26 95h90l-26 -95h-90zM37 0l188 700h79l-188 -700h-79z" />
    <glyph glyph-name="afii10057" unicode="&#x408;" horiz-adv-x="548" 
d="M194 -10q-79 0 -131.5 40.5t-76.5 108.5l63 37q44 -113 146 -113q68 0 118 48q45 46 73 151l118 438h80l-122 -453q-33 -127 -95 -189q-68 -68 -173 -68z" />
    <glyph glyph-name="afii10058" unicode="&#x409;" horiz-adv-x="1163" 
d="M28 -7q-62 0 -92 17l32 63q20 -10 58 -10q21 0 38 6t46.5 34.5t57 79t64 148.5t73.5 233l37 136h450l-72 -270h162q110 0 173 -48t63 -134q0 -118 -90.5 -183t-245.5 -65h-258l169 628h-294l-23 -84q-39 -143 -77.5 -245.5t-71.5 -160.5t-69.5 -91.5t-65 -43.5t-64.5 -10
zM624 71h161q120 0 186 44t66 127q0 55 -42 87t-120 32h-174z" />
    <glyph glyph-name="afii10059" unicode="&#x40a;" horiz-adv-x="1149" 
d="M30 0l188 700h79l-78 -286h402l77 286h81l-78 -286h176q104 0 165.5 -46.5t61.5 -128.5q0 -113 -88 -176t-238 -63h-268l92 345h-402l-91 -345h-79zM609 71h171q117 0 180 41.5t63 121.5q0 52 -39.5 82t-114.5 30h-186z" />
    <glyph glyph-name="afii10060" unicode="&#x40b;" horiz-adv-x="849" 
d="M170 0l168 628h-209l19 72h555l-19 -72h-268l-66 -247q137 66 232 66q88 0 139.5 -37.5t51.5 -107.5q0 -27 -9 -60l-64 -242h-79l62 230q7 30 7 45q0 47 -33 73.5t-93 26.5q-105 0 -233 -67l-83 -308h-78z" />
    <glyph glyph-name="afii10061" unicode="&#x40c;" horiz-adv-x="718" 
d="M402 763l134 145l80 -37l-142 -108h-72zM30 0l188 700h79l-111 -416l502 416h112l-376 -308l199 -392h-89l-174 346l-203 -167l-48 -179h-79z" />
    <glyph glyph-name="afii10062" unicode="&#x40e;" horiz-adv-x="703" 
d="M464 761q-56 0 -89.5 33.5t-35.5 87.5l55 11q10 -70 74 -70q36 0 63.5 18.5t41.5 51.5l52 -11q-17 -54 -61 -87.5t-100 -33.5zM126 -12q-84 0 -126 31l47 62q35 -21 84 -21q83 0 165 105l-163 535h86l136 -458l344 458h93l-419 -553q-121 -159 -247 -159z" />
    <glyph glyph-name="afii10145" unicode="&#x40f;" horiz-adv-x="744" 
d="M227 -156l42 156h-241l188 700h79l-169 -628h391l169 628h78l-188 -700h-226l-42 -156h-81z" />
    <glyph glyph-name="afii10017" unicode="&#x410;" horiz-adv-x="761" 
d="M-40 0l508 705h76l130 -705h-81l-32 185h-382l-132 -185h-87zM229 256h319l-63 359z" />
    <glyph glyph-name="afii10018" unicode="&#x411;" horiz-adv-x="700" 
d="M30 0l188 700h488l-18 -72h-410l-58 -214h195q106 0 167 -46t61 -129q0 -119 -92.5 -179t-252.5 -60h-268zM129 72h190q116 0 179.5 41.5t63.5 120.5q0 51 -40.5 81t-113.5 30h-206z" />
    <glyph glyph-name="afii10019" unicode="&#x412;" horiz-adv-x="717" 
d="M30 0l188 700h262q102 0 159.5 -44t57.5 -119q0 -72 -48.5 -120t-126.5 -64q124 -38 124 -145q0 -92 -79 -150t-215 -58h-322zM127 71h234q95 0 150 37.5t55 102.5q0 52 -44 79.5t-117 27.5h-212zM212 388h199q94 0 149.5 38t55.5 101q0 49 -37 75.5t-106 26.5h-197z" />
    <glyph glyph-name="afii10020" unicode="&#x413;" horiz-adv-x="590" 
d="M30 0l187 700h456l-19 -72h-377l-168 -628h-79z" />
    <glyph glyph-name="afii10021" unicode="&#x414;" horiz-adv-x="756" 
d="M-98 -156l61 228h67q148 159 235 477l42 151h451l-169 -628h93l-74 -228h-68l42 156h-559l-51 -156h-70zM123 72h387l149 556h-295l-38 -139q-36 -130 -89 -240t-114 -177z" />
    <glyph glyph-name="afii10022" unicode="&#x415;" horiz-adv-x="653" 
d="M30 0l188 700h501l-20 -72h-422l-64 -239h377l-20 -72h-376l-66 -245h427l-19 -72h-506z" />
    <glyph glyph-name="afii10024" unicode="&#x416;" horiz-adv-x="1077" 
d="M-52 0l396 408l-183 292h90l255 -415l110 415h81l-109 -408l465 408h107l-351 -303l179 -397h-91l-154 342l-184 -156l-49 -186h-81l51 193l-95 150l-331 -343h-106z" />
    <glyph glyph-name="afii10025" unicode="&#x417;" horiz-adv-x="603" 
d="M259 -12q-91 0 -157 35t-102 92l61 44q69 -101 201 -101q81 0 132 40t51 98q0 61 -48.5 92.5t-117.5 31.5h-62l17 66h70q92 0 151 38t59 102q0 52 -41 83t-105 31q-95 0 -183 -68l-45 52q102 87 233 87q96 0 160 -48t64 -127q0 -75 -53.5 -122.5t-148.5 -64.5
q59 -18 96 -57t37 -98q0 -88 -77.5 -147t-191.5 -59z" />
    <glyph glyph-name="afii10026" unicode="&#x418;" horiz-adv-x="767" 
d="M30 0l188 700h78l-154 -576l570 576h75l-187 -700h-78l153 576l-571 -576h-74z" />
    <glyph glyph-name="afii10027" unicode="&#x419;" horiz-adv-x="767" 
d="M496 761q-56 0 -89.5 33.5t-35.5 87.5l55 11q10 -70 74 -70q36 0 63.5 18.5t41.5 51.5l52 -11q-17 -54 -61 -87.5t-100 -33.5zM30 0l188 700h78l-154 -576l570 576h75l-187 -700h-78l153 576l-571 -576h-74z" />
    <glyph glyph-name="afii10028" unicode="&#x41a;" horiz-adv-x="718" 
d="M30 0l188 700h79l-111 -416l502 416h112l-376 -308l199 -392h-89l-174 346l-203 -167l-48 -179h-79z" />
    <glyph glyph-name="afii10029" unicode="&#x41b;" horiz-adv-x="771" 
d="M28 -8q-60 0 -92 19l31 62q22 -10 59 -10q21 0 38.5 6t47 34.5t57 79t64.5 148.5t73 233l36 136h449l-188 -700h-78l168 628h-294l-23 -84q-38 -143 -76.5 -245.5t-71.5 -161t-69.5 -92t-65.5 -43.5t-65 -10z" />
    <glyph glyph-name="afii10030" unicode="&#x41c;" horiz-adv-x="869" 
d="M30 0l188 700h74l151 -382l357 382h88l-188 -700h-80l152 567l-355 -375h-4l-153 374l-152 -566h-78z" />
    <glyph glyph-name="afii10031" unicode="&#x41d;" horiz-adv-x="756" 
d="M30 0l188 700h79l-83 -311h399l83 311h80l-188 -700h-80l85 315h-399l-85 -315h-79z" />
    <glyph glyph-name="afii10032" unicode="&#x41e;" horiz-adv-x="842" 
d="M395 -13q-134 0 -220.5 87t-86.5 217q0 108 53 204.5t148 156.5t207 60q134 0 220.5 -87t86.5 -216q0 -108 -53 -205t-148 -157t-207 -60zM400 60q89 0 163.5 50t115.5 129.5t41 166.5q0 101 -63 167t-166 66q-89 0 -163.5 -50t-115.5 -129.5t-41 -166.5q0 -101 63 -167
t166 -66z" />
    <glyph glyph-name="afii10033" unicode="&#x41f;" horiz-adv-x="744" 
d="M30 0l188 700h546l-188 -700h-79l169 628h-389l-168 -628h-79z" />
    <glyph glyph-name="afii10034" unicode="&#x420;" horiz-adv-x="667" 
d="M30 0l188 700h219q134 0 200 -65q50 -52 50 -130q0 -120 -94 -188t-251 -68h-166l-67 -249h-79zM195 319h151q124 0 191.5 47.5t67.5 133.5q0 51 -32 83q-44 44 -139 44h-157z" />
    <glyph glyph-name="afii10035" unicode="&#x421;" horiz-adv-x="735" 
d="M383 -13q-127 0 -212.5 79t-85.5 211q0 112 56 212t153.5 161.5t210.5 61.5q93 0 160 -40.5t104 -109.5l-68 -42q-35 59 -82.5 89t-120.5 30q-134 0 -232 -109t-98 -250q0 -100 61 -159.5t158 -59.5q119 0 217 95l53 -52q-117 -117 -274 -117z" />
    <glyph glyph-name="afii10036" unicode="&#x422;" horiz-adv-x="616" 
d="M196 0l168 627h-236l20 73h551l-20 -73h-236l-168 -627h-79z" />
    <glyph glyph-name="afii10037" unicode="&#x423;" horiz-adv-x="703" 
d="M126 -12q-84 0 -126 31l47 62q35 -21 84 -21q83 0 165 105l-163 535h86l136 -458l344 458h93l-419 -553q-121 -159 -247 -159z" />
    <glyph glyph-name="afii10038" unicode="&#x424;" horiz-adv-x="881" 
d="M321 -26l21 77q-132 3 -205 77t-73 186q0 140 107.5 240t283.5 100h48l19 69h81l-19 -69q132 -3 205 -77t73 -185q0 -140 -107.5 -240.5t-283.5 -100.5h-48l-21 -77h-81zM361 123l123 459h-39q-136 0 -216.5 -74t-80.5 -187q0 -88 56 -142.5t157 -55.5zM441 123h41
q135 0 216 74t81 187q0 88 -56.5 142.5t-158.5 55.5z" />
    <glyph glyph-name="afii10039" unicode="&#x425;" horiz-adv-x="694" 
d="M-31 0l359 362l-176 338h87l146 -286l279 286h102l-346 -349l182 -351h-87l-152 299l-291 -299h-103z" />
    <glyph glyph-name="afii10040" unicode="&#x426;" horiz-adv-x="763" 
d="M547 -156l42 156h-559l188 700h79l-169 -628h389l169 628h78l-169 -628h94l-74 -228h-68z" />
    <glyph glyph-name="afii10041" unicode="&#x427;" horiz-adv-x="690" 
d="M445 0l79 299q-132 -65 -226 -65q-87 0 -137 39t-50 111q0 29 9 62l68 254h78l-68 -254q-6 -24 -6 -43q0 -47 32.5 -72.5t93.5 -25.5q94 0 226 67l88 328h78l-187 -700h-78z" />
    <glyph glyph-name="afii10042" unicode="&#x428;" horiz-adv-x="1095" 
d="M30 0l188 700h79l-169 -628h332l168 628h78l-168 -628h332l169 628h77l-187 -700h-899z" />
    <glyph glyph-name="afii10043" unicode="&#x429;" horiz-adv-x="1117" 
d="M901 -156l42 156h-913l188 700h79l-169 -628h332l168 628h78l-168 -628h332l169 628h79l-169 -628h94l-74 -228h-68z" />
    <glyph glyph-name="afii10044" unicode="&#x42a;" horiz-adv-x="784" 
d="M147 0l168 628h-185l20 72h263l-73 -270h162q109 0 172.5 -48.5t63.5 -133.5q0 -118 -90.5 -183t-244.5 -65h-256zM244 72h162q120 0 185.5 43.5t65.5 126.5q0 56 -42.5 87t-119.5 31h-173z" />
    <glyph glyph-name="afii10045" unicode="&#x42b;" horiz-adv-x="884" 
d="M30 0l188 700h78l-72 -270h150q110 0 173 -49t63 -133q0 -118 -90.5 -183t-245.5 -65h-244zM127 72h150q120 0 185.5 43.5t65.5 126.5q0 56 -42.5 87t-118.5 31h-162zM639 0l187 700h78l-187 -700h-78z" />
    <glyph glyph-name="afii10046" unicode="&#x42c;" horiz-adv-x="665" 
d="M30 0l188 700h78l-72 -270h160q110 0 173 -49t63 -133q0 -118 -90.5 -183t-245.5 -65h-254zM128 72h159q120 0 185.5 43.5t65.5 126.5q0 56 -42.5 87t-118.5 31h-171z" />
    <glyph glyph-name="afii10047" unicode="&#x42d;" horiz-adv-x="735" 
d="M284 -13q-93 0 -161.5 41t-102.5 110l67 41q34 -59 81.5 -90t119.5 -31q114 0 199.5 75t112.5 187h-337l18 66h328q0 114 -56.5 183.5t-159.5 69.5q-125 0 -221 -98l-50 51q116 120 275 120q125 0 211 -82.5t86 -215.5q0 -171 -118.5 -299t-291.5 -128z" />
    <glyph glyph-name="afii10048" unicode="&#x42e;" horiz-adv-x="1050" 
d="M623 -13q-132 0 -207.5 86t-75.5 220q0 15 1 23h-147l-85 -316h-79l188 700h79l-84 -312h138q33 140 138.5 232t237.5 92q128 0 206 -83.5t78 -211.5q0 -116 -52.5 -215t-142 -157t-193.5 -58zM627 59q123 0 211.5 104.5t88.5 248.5q0 100 -56.5 164t-149.5 64
q-122 0 -210.5 -105t-88.5 -248q0 -100 56 -164t149 -64z" />
    <glyph glyph-name="afii10049" unicode="&#x42f;" horiz-adv-x="715" 
d="M-15 0l283 278q-143 38 -143 177q0 114 91 179.5t245 65.5h276l-187 -700h-80l72 265h-190l-265 -265h-102zM369 333h190q47 170 80 295h-179q-122 0 -188.5 -45.5t-66.5 -128.5q0 -58 43.5 -89.5t120.5 -31.5z" />
    <glyph glyph-name="afii10065" unicode="&#x430;" horiz-adv-x="576" 
d="M182 -11q-69 0 -116 38.5t-47 104.5q0 86 64 136.5t166 50.5q85 0 183 -28l4 13q6 28 6 47q0 104 -139 104q-73 0 -146 -27l-14 65q83 32 172 32q97 0 150 -42.5t53 -118.5q0 -31 -10 -71l-78 -293h-76l21 81q-79 -92 -193 -92zM207 50q67 0 125.5 43t76.5 110l10 36
q-86 23 -167 23q-68 0 -111 -34t-43 -87q0 -41 29.5 -66t79.5 -25z" />
    <glyph glyph-name="afii10066" unicode="&#x431;" horiz-adv-x="642" 
d="M294 -12q-114 0 -175 65t-61 170q0 63 14.5 127.5t45 129t87 112t131.5 62.5l297 60l9 -65l-295 -63q-80 -17 -124.5 -60.5t-67.5 -116.5q91 97 212 97q101 0 164 -59.5t63 -157.5q0 -119 -92.5 -210t-207.5 -91zM295 56q82 0 150 70.5t68 161.5q0 71 -43 113.5
t-119 42.5q-87 0 -151 -67.5t-64 -159.5q0 -70 41 -115.5t118 -45.5z" />
    <glyph glyph-name="afii10067" unicode="&#x432;" horiz-adv-x="585" 
d="M17 0l139 517h225q76 0 119 -32.5t43 -87.5q0 -52 -37 -86.5t-96 -47.5q41 -10 68 -39t27 -71q0 -68 -58.5 -110.5t-160.5 -42.5h-269zM112 63h170q67 0 105.5 25t38.5 70q0 36 -31.5 56t-81.5 20h-155zM172 294h148q65 0 103.5 25t38.5 68q0 66 -98 66h-149z" />
    <glyph glyph-name="afii10068" unicode="&#x433;" horiz-adv-x="461" 
d="M17 0l138 517h351l-18 -67h-274l-121 -450h-76z" />
    <glyph glyph-name="afii10069" unicode="&#x434;" horiz-adv-x="625" 
d="M-80 -137l53 203h59q102 118 167 359l25 92h370l-121 -451h80l-66 -203h-64l37 137h-427l-48 -137h-65zM115 66h280l104 385h-219l-21 -79q-24 -89 -64 -174t-80 -132z" />
    <glyph glyph-name="afii10070" unicode="&#x435;" horiz-adv-x="589" 
d="M277 -12q-103 0 -166 61t-63 159q0 123 87.5 221.5t213.5 98.5q94 0 147 -56.5t53 -141.5q0 -50 -19 -101h-404q-1 -6 -1 -18q0 -71 42 -113.5t114 -42.5q84 0 159 61l40 -51q-91 -77 -203 -77zM137 291h333q4 20 4 39q0 57 -33 95t-96 38q-74 0 -129.5 -48.5
t-78.5 -123.5z" />
    <glyph glyph-name="afii10072" unicode="&#x436;" horiz-adv-x="848" 
d="M-52 0l296 302l-135 215h84l183 -301l81 301h77l-80 -299l340 299h96l-260 -225l131 -292h-83l-109 241l-140 -119l-33 -122h-77l35 129l-72 113l-236 -242h-98z" />
    <glyph glyph-name="afii10073" unicode="&#x437;" horiz-adv-x="506" 
d="M205 -11q-126 0 -209 77l48 58q73 -68 161 -68q57 0 100 30t43 75q0 71 -114 71h-69l16 63h64q55 0 93 27.5t38 71.5q0 31 -27 49t-71 18q-94 0 -166 -52l-29 54q93 65 207 65q77 0 122.5 -36t45.5 -89q0 -95 -106 -134q36 -14 56.5 -42t20.5 -66q0 -73 -60.5 -122.5
t-163.5 -49.5z" />
    <glyph glyph-name="afii10074" unicode="&#x438;" horiz-adv-x="626" 
d="M17 0l138 517h76l-109 -406l416 406h74l-139 -517h-76l110 408l-416 -408h-74z" />
    <glyph glyph-name="afii10075" unicode="&#x439;" horiz-adv-x="626" 
d="M391 593q-55 0 -88 33t-35 87l53 11q11 -70 74 -70q74 0 103 70l52 -11q-17 -54 -60 -87t-99 -33zM17 0l138 517h76l-109 -406l416 406h74l-139 -517h-76l110 408l-416 -408h-74z" />
    <glyph glyph-name="afii10076" unicode="&#x43a;" horiz-adv-x="568" 
d="M17 0l138 517h78l-80 -297l355 297h102l-276 -229l142 -288h-86l-120 238l-144 -117l-32 -121h-77z" />
    <glyph glyph-name="afii10077" unicode="&#x43b;" horiz-adv-x="620" 
d="M10 -8q-48 0 -70 10l25 64q19 -7 39 -7q28 0 47.5 11t46.5 50t57.5 126t68.5 228l12 43h369l-139 -517h-77l121 451h-219l-7 -25q-32 -119 -61.5 -200t-53.5 -127t-52 -70t-50.5 -30.5t-56.5 -6.5z" />
    <glyph glyph-name="afii10078" unicode="&#x43c;" horiz-adv-x="700" 
d="M17 0l138 517h67l119 -274l266 274h79l-139 -517h-77l106 394l-261 -262l-116 263l-106 -395h-76z" />
    <glyph glyph-name="afii10079" unicode="&#x43d;" horiz-adv-x="620" 
d="M17 0l138 517h78l-60 -220h296l60 220h77l-139 -517h-77l62 231h-296l-62 -231h-77z" />
    <glyph glyph-name="afii10080" unicode="&#x43e;" horiz-adv-x="638" 
d="M284 -12q-105 0 -170 65t-65 167q0 122 90.5 215t213.5 93q106 0 171 -65t65 -166q0 -124 -91.5 -216.5t-213.5 -92.5zM289 57q87 0 154 72.5t67 164.5q0 78 -44.5 122t-117.5 44q-88 0 -154.5 -73.5t-66.5 -164.5q0 -77 44.5 -121t117.5 -44z" />
    <glyph glyph-name="afii10081" unicode="&#x43f;" horiz-adv-x="608" 
d="M17 0l138 517h439l-139 -517h-77l121 450h-284l-121 -450h-77z" />
    <glyph glyph-name="afii10082" unicode="&#x440;" horiz-adv-x="659" 
d="M-26 -160l181 677h77l-24 -89q89 100 196 100q89 0 147 -60.5t58 -158.5q0 -135 -87 -228t-203 -93q-139 0 -194 128l-74 -276h-77zM312 56q91 0 153.5 73t62.5 173q0 72 -40 115t-106 43q-87 0 -158.5 -74.5t-71.5 -168.5q0 -68 45 -114.5t115 -46.5z" />
    <glyph glyph-name="afii10083" unicode="&#x441;" horiz-adv-x="562" 
d="M277 -12q-95 0 -162 61.5t-67 164.5q0 127 90.5 220.5t213.5 93.5q76 0 127 -34t79 -87l-62 -39q-55 92 -149 92q-88 0 -154 -73.5t-66 -170.5q0 -73 45 -116.5t109 -43.5q78 0 153 68l45 -50q-91 -86 -202 -86z" />
    <glyph glyph-name="afii10084" unicode="&#x442;" horiz-adv-x="497" 
d="M137 0l121 450h-186l18 66h446l-18 -66h-183l-121 -450h-77z" />
    <glyph glyph-name="afii10085" unicode="&#x443;" horiz-adv-x="574" 
d="M38 -163q-61 0 -113 36l42 58q33 -26 79 -26q67 0 135 96l-94 516h80l72 -431l278 431h87l-354 -534q-53 -79 -103 -112.5t-109 -33.5z" />
    <glyph glyph-name="afii10086" unicode="&#x444;" horiz-adv-x="868" 
d="M284 -160l54 202q-68 -53 -138 -53q-73 0 -115.5 46t-42.5 135q0 60 18 121.5t51 115t88 87.5t122 34q76 0 131 -61l62 233h77l-61 -228q37 28 67.5 42t70.5 14q73 0 115.5 -50t42.5 -138q0 -60 -18 -120.5t-51 -112.5t-88 -85t-121 -33q-83 0 -133 54l-54 -203h-77z
M228 57q64 0 129 54l79 297q-37 51 -110 51q-94 0 -149 -88t-55 -195q0 -54 26.5 -86.5t79.5 -32.5zM542 57q95 0 149 85t54 194q0 56 -27 89.5t-78 33.5q-65 0 -127 -51l-81 -300q37 -51 110 -51z" />
    <glyph glyph-name="afii10087" unicode="&#x445;" horiz-adv-x="564" 
d="M-35 0l278 268l-130 249h85l98 -197l197 197h97l-263 -256l135 -261h-85l-103 210l-212 -210h-97z" />
    <glyph glyph-name="afii10088" unicode="&#x446;" horiz-adv-x="624" 
d="M422 -137l37 137h-442l138 517h78l-121 -451h284l121 451h77l-121 -451h80l-66 -203h-65z" />
    <glyph glyph-name="afii10089" unicode="&#x447;" horiz-adv-x="567" 
d="M336 0l57 214q-99 -46 -180 -46q-64 0 -100.5 31t-36.5 85q0 20 8 49l49 184h78l-49 -184q-6 -22 -6 -33q0 -30 21.5 -47.5t60.5 -17.5q91 0 174 49l63 233h77l-139 -517h-77z" />
    <glyph glyph-name="afii10090" unicode="&#x448;" horiz-adv-x="899" 
d="M17 0l138 517h78l-121 -451h249l121 451h77l-121 -451h249l121 451h77l-139 -517h-729z" />
    <glyph glyph-name="afii10091" unicode="&#x449;" horiz-adv-x="916" 
d="M713 -137l38 137h-734l138 517h78l-121 -451h249l121 451h77l-121 -451h249l121 451h77l-121 -451h80l-66 -203h-65z" />
    <glyph glyph-name="afii10092" unicode="&#x44a;" horiz-adv-x="627" 
d="M105 0l121 450h-155l18 67h232l-54 -199h133q81 0 128 -36.5t47 -98.5q0 -87 -67 -135t-181 -48h-222zM200 66h124q82 0 127 29.5t45 83.5q0 38 -30.5 57t-75.5 19h-140z" />
    <glyph glyph-name="afii10093" unicode="&#x44b;" horiz-adv-x="757" 
d="M17 0l139 517h77l-54 -199h127q81 0 128 -36.5t47 -98.5q0 -87 -67 -135t-181 -48h-216zM112 66h118q82 0 127 29.5t45 83.5q0 38 -30.5 57t-75.5 19h-134zM526 0l139 517h77l-139 -517h-77z" />
    <glyph glyph-name="afii10094" unicode="&#x44c;" horiz-adv-x="538" 
d="M17 0l139 517h77l-54 -199h133q81 0 128 -36.5t47 -98.5q0 -87 -67 -135t-181 -48h-222zM112 66h124q82 0 127 29.5t45 83.5q0 38 -30.5 57t-75.5 19h-140z" />
    <glyph glyph-name="afii10095" unicode="&#x44d;" horiz-adv-x="562" 
d="M212 -12q-77 0 -130 35t-79 90l62 36q52 -94 149 -94q73 0 132.5 50.5t80.5 126.5h-236l14 63h229q0 79 -44 122t-110 43q-82 0 -148 -63l-45 51q85 80 199 80q93 0 160.5 -63t67.5 -165q0 -127 -89.5 -219.5t-212.5 -92.5z" />
    <glyph glyph-name="afii10096" unicode="&#x44e;" horiz-adv-x="832" 
d="M489 -12q-106 0 -163 66.5t-57 171.5h-115l-60 -226h-77l138 517h77l-60 -224h106q26 100 104.5 167.5t181.5 67.5q102 0 161 -62.5t59 -160.5q0 -128 -85 -222.5t-210 -94.5zM495 56q88 0 149 73.5t61 172.5q0 72 -39.5 114.5t-108.5 42.5q-89 0 -150 -74t-61 -171
q0 -73 39.5 -115.5t109.5 -42.5z" />
    <glyph glyph-name="afii10097" unicode="&#x44f;" horiz-adv-x="580" 
d="M-16 0l202 201q-49 12 -76 46t-27 84q0 86 67.5 136t182.5 50h231l-138 -517h-77l50 190h-128l-188 -190h-99zM268 253h148l53 197h-135q-85 0 -130.5 -31t-45.5 -87q0 -79 110 -79z" />
    <glyph glyph-name="afii10071" unicode="&#x451;" horiz-adv-x="589" 
d="M414 595l26 95h89l-26 -95h-89zM237 595l26 95h90l-26 -95h-90zM277 -12q-103 0 -166 61t-63 159q0 123 87.5 221.5t213.5 98.5q94 0 147 -56.5t53 -141.5q0 -50 -19 -101h-404q-1 -6 -1 -18q0 -71 42 -113.5t114 -42.5q84 0 159 61l40 -51q-91 -77 -203 -77zM137 291
h333q4 20 4 39q0 57 -33 95t-96 38q-74 0 -129.5 -48.5t-78.5 -123.5z" />
    <glyph glyph-name="afii10099" unicode="&#x452;" horiz-adv-x="613" 
d="M287 -12q-64 0 -101 20l30 65q28 -16 71 -16q115 0 156 145l24 85q8 27 8 64q0 51 -31 79.5t-85 28.5q-60 0 -113.5 -47t-73.5 -120l-78 -292h-77l154 573h-81l16 61h81l26 96h77l-26 -96h213l-16 -61h-214l-37 -140q84 95 180 95q75 0 120 -43.5t45 -116.5
q0 -30 -13 -80q-13 -51 -21.5 -79.5t-21.5 -65.5t-25 -56.5t-30.5 -41.5t-40 -32.5t-50.5 -17.5t-66 -7z" />
    <glyph glyph-name="afii10100" unicode="&#x453;" horiz-adv-x="461" 
d="M259 595l134 145l80 -37l-142 -108h-72zM17 0l138 517h351l-18 -67h-274l-121 -450h-76z" />
    <glyph glyph-name="afii10101" unicode="&#x454;" horiz-adv-x="561" 
d="M276 -12q-94 0 -161 61.5t-67 163.5q0 128 90 221.5t212 93.5q137 0 201 -114l-61 -36q-49 82 -142 82q-71 0 -130 -46.5t-80 -118.5h240l-14 -64h-237q0 -85 42.5 -130.5t112.5 -45.5q87 0 161 69l48 -47q-91 -89 -215 -89z" />
    <glyph glyph-name="afii10102" unicode="&#x455;" horiz-adv-x="496" 
d="M217 -11q-133 0 -223 90l50 50q79 -76 180 -76q46 0 80 24t34 62q0 26 -21.5 46.5t-76.5 41.5q-76 30 -111 60.5t-35 81.5q0 68 54 113.5t142 45.5q54 0 105 -20.5t86 -50.5l-45 -53q-74 60 -153 60q-52 0 -82 -24t-30 -58q0 -26 21.5 -45.5t81.5 -42.5q74 -30 107.5 -62
t33.5 -80q0 -71 -57 -117t-141 -46z" />
    <glyph glyph-name="afii10103" unicode="&#x456;" horiz-adv-x="264" 
d="M24 0l139 517h77l-139 -517h-77zM188 630l23 85h88l-23 -85h-88z" />
    <glyph glyph-name="afii10104" unicode="&#x457;" horiz-adv-x="264" 
d="M256 595l26 95h89l-26 -95h-89zM79 595l26 95h90l-26 -95h-90zM24 0l139 517h77l-139 -517h-77z" />
    <glyph glyph-name="afii10105" unicode="&#x458;" horiz-adv-x="263" 
d="M-50 -163q-38 0 -69 9l18 65q23 -7 44 -7q55 0 74 70l146 543h77l-148 -551q-36 -129 -142 -129zM188 630l23 85h88l-23 -85h-88z" />
    <glyph glyph-name="afii10106" unicode="&#x459;" horiz-adv-x="911" 
d="M9 -7q-49 0 -69 9l25 63q18 -6 40 -6t37.5 6t36.5 29t41 66.5t46.5 121.5t57.5 191l12 44h368l-53 -199h132q81 0 128 -35.5t47 -99.5q0 -87 -67 -135t-181 -48h-222l121 450h-218l-7 -24q-35 -121 -64 -200.5t-52.5 -126.5t-50.5 -70t-49.5 -29.5t-58.5 -6.5zM483 66
h124q80 0 125 28.5t45 80.5q0 41 -29 60.5t-75 19.5h-139z" />
    <glyph glyph-name="afii10107" unicode="&#x45a;" horiz-adv-x="911" 
d="M17 0l138 517h77l-57 -211h296l57 211h76l-56 -211h134q81 0 128.5 -35t47.5 -97q0 -81 -67.5 -127.5t-180.5 -46.5h-221l65 243h-296l-65 -243h-76zM483 66h124q81 0 126 27.5t45 76.5q0 37 -30.5 55t-75.5 18h-141z" />
    <glyph glyph-name="afii10108" unicode="&#x45b;" horiz-adv-x="613" 
d="M17 0l154 573h-81l16 61h81l26 96h77l-26 -96h213l-16 -61h-214l-37 -140q84 95 180 95q75 0 120 -43.5t45 -116.5q0 -30 -13 -80l-76 -288h-77l78 293q8 27 8 58q0 51 -31 79.5t-85 28.5q-60 0 -113.5 -47t-73.5 -120l-78 -292h-77z" />
    <glyph glyph-name="afii10109" unicode="&#x45c;" horiz-adv-x="568" 
d="M289 595l134 145l80 -37l-142 -108h-72zM17 0l138 517h78l-80 -297l355 297h102l-276 -229l142 -288h-86l-120 238l-144 -117l-32 -121h-77z" />
    <glyph glyph-name="afii10110" unicode="&#x45e;" horiz-adv-x="574" 
d="M355 593q-55 0 -88 33t-35 87l53 11q11 -70 74 -70q74 0 103 70l52 -11q-17 -54 -60 -87t-99 -33zM38 -163q-61 0 -113 36l42 58q33 -26 79 -26q67 0 135 96l-94 516h80l72 -431l278 431h87l-354 -534q-53 -79 -103 -112.5t-109 -33.5z" />
    <glyph glyph-name="afii10193" unicode="&#x45f;" horiz-adv-x="608" 
d="M164 -137l37 137h-184l137 517h78l-120 -451h284l120 451h77l-138 -517h-178l-37 -137h-76z" />
    <glyph glyph-name="afii10050" unicode="&#x490;" horiz-adv-x="590" 
d="M30 0l188 700h368l42 156h68l-49 -228h-370l-168 -628h-79z" />
    <glyph glyph-name="afii10098" unicode="&#x491;" horiz-adv-x="461" 
d="M17 0l138 517h274l37 136h64l-42 -203h-274l-121 -450h-76z" />
    <glyph glyph-name="endash" unicode="&#x2013;" horiz-adv-x="529" 
d="M66 262l20 77h399l-20 -77h-399z" />
    <glyph glyph-name="emdash" unicode="&#x2014;" horiz-adv-x="899" 
d="M66 262l20 77h769l-20 -77h-769z" />
    <glyph glyph-name="quoteleft" unicode="&#x2018;" horiz-adv-x="255" 
d="M132 478l25 91q17 63 50.5 94t94.5 42l8 -35q-82 -20 -94 -87h37l-29 -105h-92z" />
    <glyph glyph-name="quoteright" unicode="&#x2019;" horiz-adv-x="255" 
d="M124 474l-8 34q81 20 94 87h-37l29 105h92l-25 -90q-18 -65 -51 -95t-94 -41z" />
    <glyph glyph-name="quotesinglbase" unicode="&#x201a;" horiz-adv-x="255" 
d="M-37 -121l-8 34q82 21 94 87h-37l29 105h91l-24 -90q-18 -64 -51 -94.5t-94 -41.5z" />
    <glyph glyph-name="quotedblleft" unicode="&#x201c;" horiz-adv-x="455" 
d="M332 478l24 90q18 64 51 94.5t94 41.5l8 -34q-81 -21 -93 -87h36l-28 -105h-92zM132 478l24 90q18 64 51 94.5t95 41.5l7 -34q-81 -21 -93 -87h36l-28 -105h-92z" />
    <glyph glyph-name="quotedblright" unicode="&#x201d;" horiz-adv-x="455" 
d="M316 474l-7 34q80 19 93 87h-36l28 105h92l-24 -90q-18 -64 -51 -94.5t-95 -41.5zM116 474l-7 34q80 19 93 87h-36l28 105h92l-24 -90q-18 -64 -51 -94.5t-95 -41.5z" />
    <glyph glyph-name="quotedblbase" unicode="&#x201e;" horiz-adv-x="455" 
d="M164 -121l-8 34q81 21 93 87h-36l28 105h92l-24 -90q-18 -64 -51 -94.5t-94 -41.5zM-37 -121l-8 34q82 21 94 87h-37l29 105h91l-24 -90q-18 -64 -51 -94.5t-94 -41.5z" />
    <glyph glyph-name="dagger" unicode="&#x2020;" horiz-adv-x="411" 
d="M159 238l81 282l-125 -8l15 55l120 -8l30 141h61l-47 -141l125 8l-15 -55l-122 8l-68 -282h-55z" />
    <glyph glyph-name="daggerdbl" unicode="&#x2021;" horiz-adv-x="425" 
d="M99 0l46 141l-124 -8l14 55l121 -8l40 170l51 170l-125 -8l15 55l121 -8l29 141h61l-46 -141l125 8l-15 -55l-122 8l-39 -170l-52 -170l126 8l-15 -55l-120 8l-30 -141h-61z" />
    <glyph glyph-name="bullet" unicode="&#x2022;" horiz-adv-x="478" 
d="M236 216q-48 0 -78 30t-30 81q0 64 44 112.5t106 48.5q48 0 78 -30t30 -80q0 -64 -44.5 -113t-105.5 -49z" />
    <glyph glyph-name="ellipsis" unicode="&#x2026;" horiz-adv-x="734" 
d="M493 0l28 104h91l-28 -104h-91zM252 0l29 104h90l-28 -104h-91zM12 0l28 104h91l-28 -104h-91z" />
    <glyph glyph-name="perthousand" unicode="&#x2030;" horiz-adv-x="1226" 
d="M232 346q-62 0 -101.5 42t-39.5 104q0 85 55.5 150.5t135.5 65.5q63 0 102.5 -42t39.5 -104q0 -85 -56 -150.5t-136 -65.5zM64 0l679 700h79l-679 -700h-79zM992 -7q-62 0 -101.5 41.5t-39.5 104.5q0 84 56 150t136 66q62 0 101.5 -42t39.5 -104q0 -85 -56 -150.5
t-136 -65.5zM603 -7q-62 0 -101.5 41.5t-39.5 104.5q0 84 56 150t136 66q62 0 101.5 -42t39.5 -104q0 -85 -56 -150.5t-136 -65.5zM237 401q51 0 88 49t37 107q0 44 -22.5 70t-61.5 26q-51 0 -88 -49t-37 -107q0 -44 22 -70t62 -26zM997 48q51 0 88 49t37 107q0 44 -22.5 70
t-61.5 26q-51 0 -88 -49t-37 -108q0 -43 22.5 -69t61.5 -26zM608 48q51 0 88 49t37 107q0 44 -22.5 70t-61.5 26q-51 0 -88 -49t-37 -108q0 -43 22.5 -69t61.5 -26z" />
    <glyph glyph-name="guilsinglleft" unicode="&#x2039;" horiz-adv-x="328" 
d="M150 39l-105 213l2 8l222 216l50 -42l-188 -187l82 -177z" />
    <glyph glyph-name="guilsinglright" unicode="&#x203a;" horiz-adv-x="328" 
d="M58 38l-50 42l187 187l-82 177l63 31l105 -213l-2 -8z" />
    <glyph glyph-name="fraction" unicode="&#x2044;" horiz-adv-x="542" 
d="M-98 -98l697 856h79l-697 -856h-79z" />
    <glyph glyph-name="Euro" unicode="&#x20ac;" horiz-adv-x="694" 
d="M378 -12q-105 0 -174 67.5t-76 181.5h-95l17 63h79q3 57 19 108h-70l17 62h73q45 109 130.5 175.5t195.5 66.5q89 0 146 -43.5t82 -116.5l-68 -31q-26 59 -64.5 89t-104.5 30q-73 0 -133.5 -46.5t-96.5 -123.5h272l-17 -62h-279q-17 -61 -20 -108h271l-17 -63h-254
q5 -81 50 -129t119 -48q103 0 185 90l53 -46q-101 -116 -240 -116z" />
    <glyph glyph-name="afii61352" unicode="&#x2116;" horiz-adv-x="982" 
d="M28 0l188 700h77l218 -559l150 559h80l-187 -700h-67l-225 574l-154 -574h-80zM687 161l15 56h249l-15 -56h-249zM866 288q-55 0 -88 35.5t-33 86.5q0 63 45.5 110t107.5 47q55 0 88 -35t33 -86q0 -64 -45 -111t-108 -47zM870 339q39 0 65.5 30.5t26.5 73.5
q0 32 -19 52.5t-49 20.5q-38 0 -65.5 -30.5t-27.5 -72.5q0 -32 19 -53t50 -21z" />
    <glyph glyph-name="published" unicode="&#x2117;" horiz-adv-x="830" 
d="M438 -12q-151 0 -256 106t-105 255t106 256t257 107t256 -106t105 -255t-106 -256t-257 -107zM438 19q140 0 235 97t95 235t-94.5 234t-233.5 96q-140 0 -235 -97t-95 -235t94.5 -234t233.5 -96zM316 172v371h146q66 0 105 -32t39 -89q0 -60 -43.5 -92.5t-108.5 -32.5
h-83v-125h-55zM371 347h85q43 0 68.5 19.5t25.5 54.5q0 72 -93 72h-86v-146z" />
    <glyph glyph-name="trademark" unicode="&#x2122;" horiz-adv-x="693" 
d="M361 392l87 308h42l65 -169l154 169h51l-87 -308h-43l67 236l-155 -167h-5l-65 167l-67 -236h-44zM150 392l74 266h-98l12 42h241l-12 -42h-98l-75 -266h-44z" />
    <glyph glyph-name="partialdiff" unicode="&#x2202;" 
d="M0 0v700h500v-700h-500zM81 49h339l-170 255zM49 96l171 254l-171 254v-508zM450 96v508l-171 -254zM250 395l170 255h-339z" />
    <glyph glyph-name="Delta" unicode="&#x2206;" horiz-adv-x="784" 
d="M-22 0l497 704h76l122 -704h-695zM117 72h462l-86 539z" />
    <glyph glyph-name="product" unicode="&#x220f;" 
d="M0 0v700h500v-700h-500zM81 49h339l-170 255zM49 96l171 254l-171 254v-508zM450 96v508l-171 -254zM250 395l170 255h-339z" />
    <glyph glyph-name="summation" unicode="&#x2211;" 
d="M0 0v700h500v-700h-500zM81 49h339l-170 255zM49 96l171 254l-171 254v-508zM450 96v508l-171 -254zM250 395l170 255h-339z" />
    <glyph glyph-name="minus" unicode="&#x2212;" horiz-adv-x="640" 
d="M113 316l20 74h462l-20 -74h-462z" />
    <glyph glyph-name="radical" unicode="&#x221a;" horiz-adv-x="504" 
d="M633 788l-460 -984l-53 17l-87 329l-61 -18l-7 56l114 34l78 -313l410 879h66z" />
    <glyph glyph-name="infinity" unicode="&#x221e;" horiz-adv-x="755" 
d="M217 201q-66 0 -106.5 43.5t-40.5 109.5t39.5 111t104.5 45q29 0 54.5 -8.5t55 -31.5t40 -33t43.5 -42q6 6 31 30.5t36 33.5t32.5 24.5t42.5 21t45 5.5q66 0 107.5 -44.5t41.5 -111.5t-39.5 -110t-106.5 -43q-52 0 -96.5 28.5t-93.5 78.5q-68 -63 -99 -81
q-45 -26 -91 -26zM217 267q61 0 147 86q-5 4 -24.5 21.5t-30 25.5t-28.5 20.5t-34.5 18t-32.5 5.5q-36 0 -58 -26.5t-22 -63.5q0 -39 22.5 -63t60.5 -24zM598 267q37 0 58.5 25t21.5 62q0 40 -22 65t-61 25q-55 0 -146 -91q61 -56 91 -71t58 -15z" />
    <glyph glyph-name="integral" unicode="&#x222b;" 
d="M0 0v700h500v-700h-500zM81 49h339l-170 255zM49 96l171 254l-171 254v-508zM450 96v508l-171 -254zM250 395l170 255h-339z" />
    <glyph glyph-name="approxequal" unicode="&#x2248;" horiz-adv-x="640" 
d="M648 511q-22 -58 -65 -99.5t-98 -41.5q-44 0 -133.5 35.5t-122.5 35.5q-31 0 -58 -22.5t-42 -54.5l-49 5q26 62 67.5 102.5t97.5 40.5q44 0 132 -35.5t124 -35.5q64 0 99 75q16 -1 48 -5zM600 332q-22 -58 -65 -99.5t-98 -41.5q-45 0 -133.5 35.5t-121.5 35.5
q-32 0 -59 -22.5t-42 -54.5l-49 5q60 143 164 143q45 0 133.5 -35.5t123.5 -35.5q64 0 99 75q16 -1 48 -5z" />
    <glyph glyph-name="notequal" unicode="&#x2260;" horiz-adv-x="640" 
d="M134 431l21 75h269l102 128l53 -31l-78 -97h115l-20 -75h-153l-126 -159h237l-20 -74h-276l-97 -123l-52 32l71 91h-108l20 74h147l127 159h-232z" />
    <glyph glyph-name="lessequal" unicode="&#x2264;" horiz-adv-x="640" 
d="M511 110l-445 188l21 79l546 188l-21 -82l-451 -149l371 -149zM482 0h-495l18 70h496z" />
    <glyph glyph-name="greaterequal" unicode="&#x2265;" horiz-adv-x="640" 
d="M573 298l-546 -188l22 84l449 148l-369 149l20 74l446 -188zM494 0h-495l18 70h496z" />
    <glyph glyph-name="lozenge" unicode="&#x25ca;" horiz-adv-x="640" 
d="M563 356q-149 -333 -174 -391h-71l-173 391l173 391h71q25 -58 174 -391zM488 356q-22 53 -67 157t-67 157l-133 -314q88 -210 133 -315q22 53 67 158t67 157z" />
    <glyph glyph-name="cyrBreve" unicode="&#xf6d1;" 
d="M349 593q-56 0 -89.5 33.5t-35.5 87.5l55 11q10 -70 74 -70q36 0 63.5 18.5t41.5 51.5l52 -11q-17 -54 -61 -87.5t-100 -33.5z" />
    <glyph glyph-name="cyrbreve" unicode="&#xf6d4;" 
d="M349 593q-55 0 -88 33t-35 87l53 11q11 -70 74 -70q74 0 103 70l52 -11q-17 -54 -60 -87t-99 -33z" />
    <glyph glyph-name="apple" unicode="&#xf8ff;" 
d="M0 0v700h500v-700h-500zM81 49h339l-170 255zM49 96l171 254l-171 254v-508zM450 96v508l-171 -254zM250 395l170 255h-339z" />
    <glyph glyph-name="ff" unicode="&#xfb00;" horiz-adv-x="750" 
d="M422 0l121 449h-72l18 68h71l17 62q40 153 178 153q60 0 102 -22l-18 -66q-45 21 -85 21q-78 0 -104 -98l-13 -50h169l-18 -68h-169l-121 -449h-76zM46 0l121 449h-71l18 68h71l17 62q40 153 177 153q61 0 103 -22l-18 -66q-45 21 -85 21q-78 0 -104 -98l-13 -50h169
l-19 -68h-168l-121 -449h-77z" />
    <glyph glyph-name="uni00A0" horiz-adv-x="300" 
 />
    </font>
</defs>
</svg>
