<?xml version="1.0" standalone="no"?>
<!DOCTYPE svg PUBLIC "-//W3C//DTD SVG 1.1//EN" "http://www.w3.org/Graphics/SVG/1.1/DTD/svg11.dtd" >
<svg xmlns="http://www.w3.org/2000/svg" xmlns:xlink="http://www.w3.org/1999/xlink" version="1.1">
<metadata>
Created by FontForge 20150102 at Wed Jan 14 12:29:33 2015
 By uniteet7
Copyright (c) 2005 The Hoefler Type Foundry, Inc., dba Hoefler &#38; Frere-Jones. All Rights Reserved.
</metadata>
<defs>
<font id="GothaProNarBol" horiz-adv-x="500" >
  <font-face 
    font-family="GothaProNarBol"
    font-weight="700"
    font-stretch="normal"
    units-per-em="1000"
    panose-1="2 0 8 6 3 0 0 2 0 4"
    ascent="800"
    descent="-200"
    x-height="536"
    cap-height="700"
    bbox="-60 -163 1077 926"
    underline-thickness="20"
    underline-position="-113"
    unicode-range="U+0020-FB04"
  />
<missing-glyph 
d="M0 0v700h500v-700h-500zM81 49h339l-170 255zM49 96l171 254l-171 254v-508zM450 96v508l-171 -254zM250 395l170 255h-339z" />
    <glyph glyph-name="fi" unicode="fi" horiz-adv-x="605" 
d="M545 593h-148v129h148v-129zM324 416h-103v-416h-141v416h-54v117h54v35q0 160 156 160q50 0 89 -12v-117q-25 9 -52 9q-53 0 -53 -55v-21h104v-116zM542 0h-142v536h142v-536z" />
    <glyph glyph-name="fl" unicode="fl" horiz-adv-x="605" 
d="M324 416h-103v-416h-141v416h-54v117h54v35q0 160 156 160q50 0 89 -12v-117q-25 9 -52 9q-53 0 -53 -55v-21h104v-116zM542 0h-142v722h142v-722z" />
    <glyph glyph-name="ffi" unicode="ffi" horiz-adv-x="939" 
d="M324 416h-103v-416h-141v416h-54v117h54v35q0 160 156 160q50 0 89 -12v-117q-25 9 -52 9q-53 0 -53 -55v-20h104v-117zM660 416h-103v-416h-141v416h-54v117h54v35q0 160 156 160q50 0 89 -12v-117q-26 9 -52 9q-53 0 -53 -55v-20h104v-117zM880 593h-148v129h148v-129z
M876 0h-142v536h142v-536z" />
    <glyph glyph-name="ffl" unicode="ffl" horiz-adv-x="939" 
d="M324 416h-103v-416h-141v416h-54v117h54v35q0 160 156 160q50 0 89 -12v-117q-25 9 -52 9q-53 0 -53 -55v-20h104v-117zM660 416h-103v-416h-141v416h-54v117h54v35q0 160 156 160q50 0 89 -12v-117q-26 9 -52 9q-53 0 -53 -55v-20h104v-117zM876 0h-142v722h142v-722z
" />
    <glyph glyph-name=".notdef" 
d="M0 0v700h500v-700h-500zM81 49h339l-170 255zM49 96l171 254l-171 254v-508zM450 96v508l-171 -254zM250 395l170 255h-339z" />
    <glyph glyph-name=".null" horiz-adv-x="0" 
 />
    <glyph glyph-name="nonmarkingreturn" horiz-adv-x="333" 
 />
    <glyph glyph-name="space" unicode=" " horiz-adv-x="257" 
 />
    <glyph glyph-name="exclam" unicode="!" horiz-adv-x="293" 
d="M231 680l-46 -448h-77l-45 448v20h168v-20zM224 0h-155v153h155v-153z" />
    <glyph glyph-name="quotedbl" unicode="&#x22;" horiz-adv-x="467" 
d="M434 694l-99 -313h-67l12 319h154v-6zM220 694l-100 -313h-67l13 319h154v-6z" />
    <glyph glyph-name="numbersign" unicode="#" horiz-adv-x="603" 
d="M574 429h-86l-22 -154h79v-122h-97l-22 -153h-116l22 153h-120l-23 -153h-115l22 153h-68v122h86l22 154h-78v122h97l21 149h116l-22 -149h121l21 149h116l-22 -149h68v-122zM373 429h-121l-22 -154h121z" />
    <glyph glyph-name="dollar" unicode="$" horiz-adv-x="555" 
d="M332 -101h-97v101q-109 14 -195 76l55 117q85 -60 153 -70v169q-102 42 -147.5 89t-45.5 127v1q0 77 49.5 128t130.5 62v64h97v-63q85 -10 157 -58l-47 -120q-68 43 -123 54v-159q114 -51 155.5 -98.5t41.5 -125.5v-1q0 -76 -50.5 -127t-133.5 -63v-103zM384 186
q0 25 -14 42t-51 35v-140q65 8 65 62v1zM187 518q0 -24 12.5 -39t48.5 -32v130q-61 -9 -61 -58v-1z" />
    <glyph glyph-name="percent" unicode="%" horiz-adv-x="773" 
d="M344 522q0 -77 -42.5 -127t-110.5 -50t-110 49.5t-42 126.5v9q0 77 42.5 127t110.5 50t110 -50t42 -127v-8zM667 700l-456 -700h-104l455 700h105zM734 170q0 -77 -43 -127t-111 -50q-67 0 -109 50t-42 127v8q0 77 42.5 127t110.5 50t110 -49.5t42 -126.5v-9zM246 522v7
q0 41 -15 65.5t-40 24.5q-26 0 -40 -23.5t-14 -65.5v-7q0 -41 15 -65.5t40 -24.5q26 0 40 23.5t14 65.5zM636 170v7q0 41 -15 65.5t-41 24.5q-25 0 -39 -23.5t-14 -65.5v-7q0 -41 15 -65.5t40 -24.5q26 0 40 23.5t14 65.5z" />
    <glyph glyph-name="ampersand" unicode="&#x26;" horiz-adv-x="617" 
d="M597 58l-105 -71l-67 76q-81 -73 -182 -73q-93 0 -154.5 54.5t-61.5 143.5v3q0 125 128 197q-52 79 -52 145v4q0 72 52.5 123t139.5 51q80 0 130 -48t50 -120v-4q0 -119 -133 -184l84 -101q23 41 53 111l107 -48q-34 -89 -78 -157zM350 532v4q0 29 -16 45.5t-42 16.5
q-27 0 -43 -18t-16 -47v-4q0 -40 39 -93q78 38 78 96zM349 148l-120 148q-58 -39 -58 -98v-4q0 -37 25 -60.5t63 -23.5q47 0 90 38z" />
    <glyph glyph-name="quotesingle" unicode="'" horiz-adv-x="254" 
d="M221 694l-99 -313h-69l13 319h155v-6z" />
    <glyph glyph-name="parenleft" unicode="(" horiz-adv-x="401" 
d="M363 -44l-46 -96q-263 123 -263 428q0 303 263 426l46 -96q-89 -59 -129.5 -138.5t-40.5 -191.5q0 -113 40.5 -193t129.5 -139z" />
    <glyph glyph-name="parenright" unicode=")" horiz-adv-x="401" 
d="M347 288q0 -305 -263 -428l-47 96q90 59 130 139t40 193q0 112 -40.5 192t-129.5 138l47 96q263 -123 263 -426z" />
    <glyph glyph-name="asterisk" unicode="*" horiz-adv-x="390" 
d="M351 496l-42 -71l-90 71l17 -117h-82l17 117l-90 -71l-41 71l105 44l-105 44l41 71l90 -71l-17 117h82l-17 -117l90 71l42 -71l-106 -44z" />
    <glyph glyph-name="plus" unicode="+" horiz-adv-x="579" 
d="M525 287h-169v-173h-133v173h-169v130h169v173h133v-173h169v-130z" />
    <glyph glyph-name="comma" unicode="," horiz-adv-x="266" 
d="M210 25q0 -178 -175 -187l-11 59q51 7 74 34.5t19 68.5h-62v153h155v-128z" />
    <glyph glyph-name="hyphen" unicode="-" horiz-adv-x="386" 
d="M339 241h-293v138h293v-138z" />
    <glyph glyph-name="period" unicode="." horiz-adv-x="266" 
d="M210 0h-155v153h155v-153z" />
    <glyph glyph-name="slash" unicode="/" horiz-adv-x="463" 
d="M473 789l-376 -908h-119l375 908h120z" />
    <glyph glyph-name="zero" unicode="0" horiz-adv-x="629" 
d="M584 344q0 -161 -73.5 -258t-196.5 -97t-196 96.5t-73 257.5v13q0 161 73.5 258t196.5 97t196 -96.5t73 -257.5v-13zM437 343v12q0 109 -33.5 167.5t-89.5 58.5q-57 0 -89.5 -57.5t-32.5 -166.5v-12q0 -109 33 -167.5t90 -58.5t89.5 57.5t32.5 166.5z" />
    <glyph glyph-name="one" unicode="1" horiz-adv-x="371" 
d="M293 0h-143v556l-107 -28l-22 125l173 52h99v-705z" />
    <glyph glyph-name="two" unicode="2" horiz-adv-x="532" 
d="M488 0h-447v116l198 215q56 58 77.5 93t21.5 71q0 38 -23 60t-61 22q-35 0 -63.5 -18t-64.5 -57l-75 97q46 56 96 82.5t122 26.5q98 0 156.5 -53t58.5 -144v-3q0 -68 -32 -118t-114 -129l-110 -132h260v-129z" />
    <glyph glyph-name="three" unicode="3" horiz-adv-x="533" 
d="M487 216q0 -100 -64 -163t-170 -63q-137 0 -222 90l74 105q66 -64 144 -64q43 0 69.5 24t26.5 65v4q0 92 -132 95h-45l-17 92l151 171h-240v128h416v-114l-159 -173q168 -34 168 -192v-5z" />
    <glyph glyph-name="four" unicode="4" horiz-adv-x="598" 
d="M560 144h-83v-144h-137v144h-297l-17 105l324 455h127v-441h83v-119zM340 263v230l-158 -230h158z" />
    <glyph glyph-name="five" unicode="5" horiz-adv-x="541" 
d="M495 230q0 -111 -66.5 -175.5t-178.5 -64.5q-123 0 -211 78l65 114q70 -59 141 -59q50 0 79 27t29 76v5q0 47 -28.5 71.5t-78.5 24.5q-47 0 -96 -21l-80 53l20 341h376v-129h-257l-8 -127q38 10 78 10q96 0 156 -54t60 -166v-4z" />
    <glyph glyph-name="six" unicode="6" horiz-adv-x="574" 
d="M530 230q0 -107 -66.5 -174t-168.5 -67q-107 0 -169 63q-80 80 -80 275v4q0 181 70 280t204 99q102 0 179 -58l-57 -119q-62 46 -121 46q-57 0 -90 -45t-38 -125q58 45 129 45q90 0 149 -55.5t59 -162.5v-6zM389 224v5q0 49 -27 77t-71 28q-47 0 -73 -28q-27 -27 -27 -76
v-6q0 -53 27 -81.5t73 -28.5t72 29t26 81z" />
    <glyph glyph-name="seven" unicode="7" horiz-adv-x="527" 
d="M486 593l-256 -593h-157l256 570h-277v130h434v-107z" />
    <glyph glyph-name="eight" unicode="8" horiz-adv-x="553" 
d="M515 195q0 -95 -66.5 -150t-172.5 -55q-104 0 -171.5 55.5t-67.5 147.5v3q0 119 104 171q-84 51 -84 151v4q0 81 61.5 134.5t157.5 53.5t157.5 -53.5t61.5 -134.5v-4q0 -101 -84 -151q104 -57 104 -168v-4zM359 503v3q0 39 -22 63t-61 24q-38 0 -60.5 -23.5t-22.5 -62.5
v-3q0 -41 22.5 -66t60.5 -25t60.5 24.5t22.5 65.5zM375 203v4q0 44 -27.5 68.5t-71.5 24.5t-71.5 -24.5t-27.5 -68.5v-4q0 -45 26 -70t73 -25t73 25t26 70z" />
    <glyph glyph-name="nine" unicode="9" horiz-adv-x="574" 
d="M529 369q0 -182 -71 -280.5t-203 -98.5q-106 0 -189 62l57 119q65 -50 131 -50q57 0 90.5 44t37.5 121q-53 -46 -128 -46q-92 0 -150.5 57t-58.5 164v6q0 108 66 176t169 68q106 0 169 -63q80 -80 80 -275v-4zM384 467v6q0 55 -26.5 84t-73.5 29t-72.5 -29.5t-25.5 -83.5
v-5q0 -50 27 -79t71 -29q43 0 72 27q28 30 28 80z" />
    <glyph glyph-name="colon" unicode=":" horiz-adv-x="276" 
d="M215 383h-155v153h155v-153zM215 0h-155v153h155v-153z" />
    <glyph glyph-name="semicolon" unicode=";" horiz-adv-x="276" 
d="M215 383h-155v153h155v-153zM215 25q0 -178 -175 -187l-11 59q51 7 74 34.5t19 68.5h-62v153h155v-128z" />
    <glyph glyph-name="less" unicode="&#x3c;" horiz-adv-x="555" 
d="M490 74l-426 209v138l426 209v-141l-293 -136l293 -136v-143z" />
    <glyph glyph-name="equal" unicode="=" horiz-adv-x="555" 
d="M501 411h-447v133h447v-133zM501 160h-447v133h447v-133z" />
    <glyph glyph-name="greater" unicode="&#x3e;" horiz-adv-x="555" 
d="M490 283l-425 -209v141l292 136l-292 136v143l425 -209v-138z" />
    <glyph glyph-name="question" unicode="?" horiz-adv-x="477" 
d="M446 505q0 -151 -173 -194l-11 -79h-95l-19 166l4 5q152 13 152 98v2q0 34 -24 53.5t-65 19.5q-71 0 -131 -55l-64 103q84 84 204 84q101 0 161.5 -53.5t60.5 -145.5v-4zM291 0h-155v153h155v-153z" />
    <glyph glyph-name="at" unicode="@" horiz-adv-x="877" 
d="M831 343q0 -125 -53 -201t-137 -76q-98 0 -137 66q-56 -65 -133 -65q-66 0 -109.5 46.5t-43.5 124.5q0 110 60.5 190t140.5 80q76 0 118 -66l10 54l112 -19l-46 -264q-4 -17 -4 -42q0 -26 16 -41.5t44 -15.5q51 0 85 64t34 167q0 132 -97 229t-241 97q-102 0 -186 -57.5
t-130 -152.5t-46 -206q-1 -161 98.5 -265t253.5 -104q117 0 215 58l21 -33q-110 -65 -238 -65q-169 0 -281 116t-112 294q0 121 52.5 225t146.5 167t208 63q159 0 269 -110t110 -258zM513 328q0 37 -20 58.5t-53 21.5t-60 -27t-37 -71q-9 -43 -9 -65q0 -39 20.5 -60.5
t54.5 -21.5q32 0 59.5 28t37.5 74q7 32 7 63z" />
    <glyph glyph-name="A" unicode="A" horiz-adv-x="672" 
d="M655 0h-149l-52 152h-240l-52 -152h-145l250 704h138zM410 280l-76 228l-77 -228h153z" />
    <glyph glyph-name="B" unicode="B" horiz-adv-x="624" 
d="M589 193q0 -93 -68.5 -143t-184.5 -50h-266v700h259q104 0 167 -48t63 -135q0 -104 -95 -153q61 -25 93 -63.5t32 -103.5v-4zM416 493q0 79 -98 79h-107v-159h100q105 0 105 80zM445 209q0 84 -109 84h-125v-165h129q50 0 77.5 20.5t27.5 60.5z" />
    <glyph glyph-name="C" unicode="C" horiz-adv-x="617" 
d="M583 84q-47 -47 -100.5 -70.5t-128.5 -23.5q-135 0 -222.5 98t-87.5 257v9q0 159 89 257.5t228 98.5q129 0 217 -80l-68 -117q-73 62 -146 62q-75 0 -122.5 -59t-47.5 -160v-10q0 -103 47 -162t124 -59q75 0 149 64z" />
    <glyph glyph-name="D" unicode="D" horiz-adv-x="673" 
d="M629 346q0 -154 -92 -250t-242 -96h-225v700h225q150 0 242 -95.5t92 -249.5v-9zM479 345v9q0 102 -49.5 158.5t-130.5 56.5h-85v-438h85q81 0 130.5 56t49.5 158z" />
    <glyph glyph-name="E" unicode="E" horiz-adv-x="568" 
d="M524 0h-454v700h450v-130h-307v-153h270v-130h-270v-157h311v-130z" />
    <glyph glyph-name="F" unicode="F" horiz-adv-x="552" 
d="M519 567h-305v-157h269v-132h-269v-278h-144v700h449v-133z" />
    <glyph glyph-name="G" unicode="G" horiz-adv-x="670" 
d="M616 77q-112 -87 -247 -87q-144 0 -234.5 97t-90.5 258v9q0 155 92.5 255.5t234.5 100.5q129 0 221 -73l-68 -120q-74 58 -155 58q-75 0 -125 -61.5t-50 -156.5v-12q0 -105 50.5 -164t129.5 -59q59 0 105 29v124h-127v126h264v-324z" />
    <glyph glyph-name="H" unicode="H" horiz-adv-x="659" 
d="M589 0h-144v285h-231v-285h-144v700h144v-281h231v281h144v-700z" />
    <glyph glyph-name="I" unicode="I" horiz-adv-x="295" 
d="M219 0h-144v700h144v-700z" />
    <glyph glyph-name="J" unicode="J" horiz-adv-x="483" 
d="M422 222q0 -114 -60 -172.5t-164 -58.5q-109 0 -183 76l67 113q53 -53 107 -53q85 0 85 103v470h148v-478z" />
    <glyph glyph-name="K" unicode="K" horiz-adv-x="632" 
d="M624 0h-171l-174 288l-65 -82v-206h-144v700h144v-302l228 302h172l-235 -296z" />
    <glyph glyph-name="L" unicode="L" horiz-adv-x="523" 
d="M497 0h-427v700h144v-567h283v-133z" />
    <glyph glyph-name="M" unicode="M" horiz-adv-x="753" 
d="M684 0h-142v447l-165 -289h-3l-164 286v-444h-140v700h152l154 -284l155 284h153v-700z" />
    <glyph glyph-name="N" unicode="N" horiz-adv-x="681" 
d="M612 0h-125l-276 423v-423h-141v700h133l266 -408v408h143v-700z" />
    <glyph glyph-name="O" unicode="O" horiz-adv-x="721" 
d="M676 345q0 -156 -89 -256t-227 -100q-139 0 -227.5 99t-88.5 255v12q0 157 89 256.5t228 99.5q138 0 226.5 -99t88.5 -255v-12zM527 343v12q0 102 -46.5 162.5t-120.5 60.5q-75 0 -120.5 -59.5t-45.5 -161.5v-12q0 -102 46.5 -162.5t120.5 -60.5q75 0 120.5 59.5
t45.5 161.5z" />
    <glyph glyph-name="P" unicode="P" horiz-adv-x="583" 
d="M558 458q0 -117 -73.5 -181t-188.5 -64h-82v-213h-144v700h232q118 0 187 -64.5t69 -177.5zM412 455q0 56 -30 85t-84 29h-84v-226h85q52 0 82.5 30.5t30.5 81.5z" />
    <glyph glyph-name="Q" unicode="Q" horiz-adv-x="723" 
d="M691 76l-87 -95l-68 63q-76 -55 -176 -55q-139 0 -227.5 99t-88.5 255v12q0 157 89 256.5t228 99.5q138 0 226.5 -99t88.5 -255v-12q0 -120 -54 -209zM527 343v12q0 102 -46.5 162.5t-120.5 60.5q-75 0 -120.5 -59.5t-45.5 -161.5v-12q0 -105 46.5 -164.5t123.5 -59.5
q40 0 71 15l-98 86l86 96l89 -82q15 45 15 107z" />
    <glyph glyph-name="R" unicode="R" horiz-adv-x="625" 
d="M599 0h-165l-128 230h-92v-230h-144v700h261q117 0 183.5 -60t66.5 -172q0 -150 -130 -208zM435 461v4q0 104 -113 104h-108v-211h111q51 0 80.5 27t29.5 76z" />
    <glyph glyph-name="S" unicode="S" horiz-adv-x="545" 
d="M508 198q0 -96 -64 -151t-167 -55q-141 0 -246 87l64 114q92 -71 179 -71q42 0 66 17t24 49q0 29 -23 49t-95 51q-43 18 -69 31t-53.5 32.5t-42 39.5t-24 49t-9.5 66q0 91 62.5 146.5t160.5 55.5q123 0 214 -68l-56 -119q-87 57 -156 57q-38 0 -59.5 -17t-21.5 -45
q0 -31 22.5 -48t102.5 -53q103 -46 147 -92t44 -125z" />
    <glyph glyph-name="T" unicode="T" horiz-adv-x="551" 
d="M522 566h-174v-566h-145v566h-175v134h494v-134z" />
    <glyph glyph-name="U" unicode="U" horiz-adv-x="654" 
d="M592 274q0 -140 -71 -212t-195 -72t-194.5 71.5t-70.5 209.5v429h144v-430q0 -73 32 -110t90 -37t90 36.5t32 107.5v433h143v-426z" />
    <glyph glyph-name="V" unicode="V" horiz-adv-x="638" 
d="M621 700l-236 -704h-133l-235 704h156l148 -482l148 482h152z" />
    <glyph glyph-name="W" unicode="W" horiz-adv-x="963" 
d="M940 700l-199 -704h-132l-128 445l-128 -445h-132l-199 704h153l116 -460l129 461h126l128 -461l117 460h149z" />
    <glyph glyph-name="X" unicode="X" horiz-adv-x="630" 
d="M606 0h-165l-128 232l-129 -232h-160l205 357l-197 343h165l119 -219l121 219h160l-196 -343z" />
    <glyph glyph-name="Y" unicode="Y" horiz-adv-x="616" 
d="M607 700l-227 -422v-278h-145v276l-227 424h164l137 -275l139 275h159z" />
    <glyph glyph-name="Z" unicode="Z" horiz-adv-x="598" 
d="M548 0h-497v111l318 460h-308v129h487v-111l-318 -460h318v-129z" />
    <glyph glyph-name="bracketleft" unicode="[" horiz-adv-x="411" 
d="M362 -130h-286v830h286v-108h-152v-614h152v-108z" />
    <glyph glyph-name="backslash" unicode="\" horiz-adv-x="463" 
d="M485 -119h-120l-375 908h120z" />
    <glyph glyph-name="bracketright" unicode="]" horiz-adv-x="411" 
d="M335 -130h-286v108h152v614h-152v108h286v-830z" />
    <glyph glyph-name="asciicircum" unicode="^" 
d="M427 496h-100l-78 121l-78 -121h-98l126 202h102z" />
    <glyph glyph-name="underscore" unicode="_" horiz-adv-x="556" 
d="M558 -157h-560v108h560v-108z" />
    <glyph glyph-name="grave" unicode="`" 
d="M347 593h-102l-124 122l118 54z" />
    <glyph glyph-name="a" unicode="a" horiz-adv-x="519" 
d="M467 0h-139v57q-52 -66 -139 -66q-69 0 -114.5 43t-45.5 118v7q0 85 50.5 128t136.5 43q60 0 113 -21v15q0 94 -103 94q-59 0 -130 -28l-27 115q84 37 180 37q109 0 163.5 -56t54.5 -161v-325zM330 175v46q-34 17 -79 17q-40 0 -62.5 -18.5t-22.5 -53.5v-7q0 -32 19 -49
t50 -17q42 0 68.5 22.5t26.5 59.5z" />
    <glyph glyph-name="b" unicode="b" horiz-adv-x="587" 
d="M549 260q0 -130 -59 -200t-146 -70q-83 0 -145 78v-68h-142v722h142v-260q58 84 145 84q86 0 145.5 -70t59.5 -200v-16zM408 262v12q0 67 -30.5 107.5t-75.5 40.5t-74.5 -40.5t-29.5 -107.5v-12q0 -67 29.5 -107.5t74.5 -40.5q46 0 76 40.5t30 107.5z" />
    <glyph glyph-name="c" unicode="c" horiz-adv-x="485" 
d="M458 64q-36 -37 -76.5 -56t-100.5 -19q-107 0 -176 76.5t-69 195.5v11q0 119 70 196t177 77t172 -67l-64 -106q-49 47 -104 47q-48 0 -79 -40t-31 -105v-12q0 -67 31.5 -107t83.5 -40t104 47z" />
    <glyph glyph-name="d" unicode="d" horiz-adv-x="587" 
d="M530 0h-142v74q-58 -84 -145 -84q-86 0 -145.5 70t-59.5 200v16q0 130 59 200t146 70q85 0 145 -78v254h142v-722zM390 262v12q0 67 -30 107.5t-75 40.5t-75 -40.5t-30 -107.5v-12q0 -67 30 -107.5t75 -40.5t75 40.5t30 107.5z" />
    <glyph glyph-name="e" unicode="e" horiz-adv-x="534" 
d="M498 261q0 -27 -2 -47h-320q19 -107 116 -107q63 0 119 50l64 -86q-74 -82 -188 -82q-109 0 -180.5 75t-71.5 197v10q0 119 66.5 196.5t168.5 77.5q110 0 169 -79.5t59 -204.5zM361 309q-5 56 -28.5 88t-62.5 32t-63.5 -31t-31.5 -89h186z" />
    <glyph glyph-name="f" unicode="f" horiz-adv-x="336" 
d="M324 416h-103v-416h-141v416h-54v117h54v35q0 160 156 160q50 0 89 -12v-117q-25 9 -52 9q-53 0 -53 -55v-20h104v-117z" />
    <glyph glyph-name="g" unicode="g" horiz-adv-x="587" 
d="M530 99q0 -133 -66 -192.5t-200 -59.5q-107 0 -200 44l36 113q80 -41 157 -41q133 0 133 127v34q-31 -41 -66 -62.5t-85 -21.5q-86 0 -143.5 66t-57.5 189q0 121 58 186t143 65q84 0 149 -78v68h142v-437zM390 292q0 60 -30 96t-76 36t-75 -36t-29 -96q0 -59 29 -94.5
t75 -35.5t76 35.5t30 94.5z" />
    <glyph glyph-name="h" unicode="h" horiz-adv-x="550" 
d="M496 0h-142v323q0 46 -20 70.5t-56 24.5q-37 0 -58 -24.5t-21 -70.5v-323h-142v722h142v-258q59 82 138 82q76 0 117.5 -48.5t41.5 -132.5v-365z" />
    <glyph glyph-name="i" unicode="i" horiz-adv-x="267" 
d="M208 593h-148v129h148v-129zM204 0h-142v536h142v-536z" />
    <glyph glyph-name="j" unicode="j" horiz-adv-x="268" 
d="M208 593h-148v129h148v-129zM205 5q0 -159 -158 -159q-28 0 -60 5v112q9 -2 25 -2q51 0 51 56v519h142v-531z" />
    <glyph glyph-name="k" unicode="k" horiz-adv-x="521" 
d="M516 0h-161l-112 214l-44 -56v-158h-142v722h142v-384l147 198h166l-170 -213z" />
    <glyph glyph-name="l" unicode="l" horiz-adv-x="267" 
d="M204 0h-142v722h142v-722z" />
    <glyph glyph-name="m" unicode="m" horiz-adv-x="838" 
d="M783 0h-142v323q0 46 -19 70.5t-54 24.5q-36 0 -56.5 -24.5t-20.5 -70.5v-323h-142v323q0 95 -74 95q-35 0 -55.5 -24.5t-20.5 -70.5v-323h-142v536h142v-72q58 82 139 82q92 0 133 -78q65 78 152 78q74 0 117 -46.5t43 -133.5v-366z" />
    <glyph glyph-name="n" unicode="n" horiz-adv-x="550" 
d="M496 0h-142v323q0 46 -20 70.5t-56 24.5q-37 0 -58 -24.5t-21 -70.5v-323h-142v536h142v-72q59 82 138 82q76 0 117.5 -48.5t41.5 -132.5v-365z" />
    <glyph glyph-name="o" unicode="o" horiz-adv-x="578" 
d="M542 262q0 -119 -72 -196t-182 -77q-109 0 -180.5 76.5t-71.5 195.5v11q0 119 72 196t182 77q109 0 180.5 -76.5t71.5 -195.5v-11zM401 260v12q0 66 -31 108t-82 42q-52 0 -82 -41t-30 -107v-12q0 -66 31.5 -108t82.5 -42t81 41t30 107z" />
    <glyph glyph-name="p" unicode="p" horiz-adv-x="587" 
d="M549 260q0 -130 -59 -200t-146 -70q-83 0 -145 78v-219h-142v687h142v-74q58 84 145 84q86 0 145.5 -70t59.5 -200v-16zM408 262v12q0 67 -30.5 107.5t-75.5 40.5t-74.5 -40.5t-29.5 -107.5v-12q0 -67 29.5 -107.5t74.5 -40.5q46 0 76 40.5t30 107.5z" />
    <glyph glyph-name="q" unicode="q" horiz-adv-x="587" 
d="M530 -151h-142v225q-58 -84 -145 -84q-86 0 -145.5 70t-59.5 200v16q0 130 59 200t146 70q85 0 145 -78v68h142v-687zM390 262v12q0 67 -30 107.5t-75 40.5t-75 -40.5t-30 -107.5v-12q0 -67 30 -107.5t75 -40.5t75 40.5t30 107.5z" />
    <glyph glyph-name="r" unicode="r" horiz-adv-x="368" 
d="M345 391h-6q-67 0 -103.5 -42t-36.5 -125v-224h-142v536h142v-95q45 108 146 104v-154z" />
    <glyph glyph-name="s" unicode="s" horiz-adv-x="437" 
d="M405 156q0 -80 -52.5 -123t-135.5 -43q-107 0 -194 64l46 105q79 -55 148 -55q58 0 58 42q0 6 -2 11.5t-7.5 10.5t-10.5 9t-15 9l-17 8.5t-21 10t-23 10.5q-66 30 -102.5 66.5t-36.5 100.5q0 75 51.5 118.5t131.5 43.5q90 0 167 -48l-41 -108q-73 42 -126 42
q-52 0 -52 -38q0 -6 2 -11t7 -10t10 -9t15 -9.5t17 -9l21 -10.5t23 -12q34 -18 53.5 -30t42 -32t33 -45.5t10.5 -57.5z" />
    <glyph glyph-name="t" unicode="t" horiz-adv-x="363" 
d="M326 18q-44 -26 -105 -26q-67 0 -104.5 32t-37.5 110v282h-54v120h54v137h142v-137h107v-120h-107v-253q0 -46 44 -46q34 0 61 15v-114z" />
    <glyph glyph-name="u" unicode="u" horiz-adv-x="550" 
d="M492 0h-142v72q-59 -82 -138 -82q-75 0 -116.5 48.5t-41.5 132.5v365h142v-323q0 -46 19.5 -70.5t55.5 -24.5q37 0 58 24.5t21 70.5v323h142v-536z" />
    <glyph glyph-name="v" unicode="v" horiz-adv-x="529" 
d="M512 536l-181 -539h-133l-181 539h148l100 -355l101 355h146z" />
    <glyph glyph-name="w" unicode="w" horiz-adv-x="760" 
d="M740 536l-144 -539h-131l-85 317l-87 -317h-130l-143 539h144l72 -317l84 318h121l84 -319l74 318h141z" />
    <glyph glyph-name="x" unicode="x" horiz-adv-x="516" 
d="M497 0h-151l-90 168l-90 -168h-148l161 273l-155 263h150l85 -157l85 157h147l-156 -261z" />
    <glyph glyph-name="y" unicode="y" horiz-adv-x="529" 
d="M512 536l-180 -541q-27 -80 -64 -114.5t-102 -34.5q-67 0 -122 31l42 106q33 -19 62 -19q34 0 50 35l-181 537h148l101 -358l100 358h146z" />
    <glyph glyph-name="z" unicode="z" horiz-adv-x="481" 
d="M445 0h-406v100l236 320h-229v116h399v-100l-237 -320h237v-116z" />
    <glyph glyph-name="braceleft" unicode="{" horiz-adv-x="434" 
d="M394 -47l-19 -94q-119 17 -169 63t-50 124q0 13 5 44.5t5 46.5q0 51 -24 73t-77 22h-24v110h24q53 0 77 22t24 73q0 15 -5 46.5t-5 44.5q0 78 50 124t169 63l19 -94q-63 -16 -86.5 -39.5t-23.5 -67.5q0 -17 5.5 -49t5.5 -47q0 -102 -108 -131q108 -29 108 -131
q0 -15 -5.5 -47t-5.5 -49q0 -44 23.5 -67.5t86.5 -39.5z" />
    <glyph glyph-name="bar" unicode="|" horiz-adv-x="319" 
d="M216 -119h-112v908h112v-908z" />
    <glyph glyph-name="braceright" unicode="}" horiz-adv-x="436" 
d="M395 232h-24q-53 0 -77 -22t-24 -73q0 -15 5 -46.5t5 -44.5q0 -78 -50 -124t-169 -63l-19 94q63 16 86.5 39.5t23.5 67.5q0 17 -5.5 49t-5.5 47q0 102 108 131q-108 29 -108 131q0 15 5.5 47t5.5 49q0 44 -23.5 67.5t-86.5 39.5l19 94q119 -17 169 -63t50 -124
q0 -13 -5 -44.5t-5 -46.5q0 -51 24 -73t77 -22h24v-110z" />
    <glyph glyph-name="asciitilde" unicode="~" horiz-adv-x="467" 
d="M422 369q-28 -129 -113 -129q-34 0 -78 20t-61 20q-18 0 -28.5 -11.5t-20.5 -37.5l-76 23q29 130 113 130q32 0 78 -21q44 -20 60 -20q19 0 29.5 11.5t20.5 37.5z" />
    <glyph glyph-name="uni00A0" unicode="&#xa0;" horiz-adv-x="257" 
 />
    <glyph glyph-name="exclamdown" unicode="&#xa1;" horiz-adv-x="293" 
d="M224 546h-155v154h155v-154zM231 0h-168v20l45 448h77l46 -448v-20z" />
    <glyph glyph-name="cent" unicode="&#xa2;" horiz-adv-x="496" 
d="M379 705l-11 -84q47 -14 91 -56l-63 -105q-27 26 -57 37l-42 -296q51 1 102 47l60 -95q-76 -76 -167 -78l-10 -81h-97l13 96q-72 27 -115 96.5t-43 161.5v10q0 115 65.5 192t168.5 82l9 73h96zM176 349q0 -95 52 -130l41 285q-43 -7 -68 -47t-25 -97v-11z" />
    <glyph glyph-name="sterling" unicode="&#xa3;" horiz-adv-x="555" 
d="M517 0h-469v95l68 24v151h-67v122h67v90q0 111 58 169t158 58q112 0 181 -83l-82 -102q-43 49 -91 49q-33 0 -54 -21q-24 -24 -24 -72v-88h188v-122h-188v-144h255v-126z" />
    <glyph glyph-name="currency" unicode="&#xa4;" horiz-adv-x="617" 
d="M584 91q-82 -102 -199 -102q-101 0 -169.5 60.5t-94.5 170.5h-82v97h68v70h-68v97h84q27 107 96 167t167 60q68 0 113.5 -24t82.5 -70l-81 -99q-53 62 -114 62q-82 0 -114 -96h159v-97h-178q-1 -10 -1 -32v-9q0 -19 1 -29h178v-97h-161q31 -100 121 -100q33 0 58.5 15
t56.5 49z" />
    <glyph glyph-name="yen" unicode="&#xa5;" horiz-adv-x="600" 
d="M369 257v-61h155v-103h-155v-93h-139v93h-154v103h154v61h-154v104h119l-183 339h161l128 -267l130 267h157l-185 -339h121v-104h-155z" />
    <glyph glyph-name="brokenbar" unicode="&#xa6;" 
d="M0 0v700h500v-700h-500zM81 49h339l-170 255zM49 96l171 254l-171 254v-508zM450 96v508l-171 -254zM250 395l170 255h-339z" />
    <glyph glyph-name="section" unicode="&#xa7;" horiz-adv-x="565" 
d="M522 350q0 -85 -86 -116q37 -33 37 -89v-1q0 -71 -50.5 -112t-137.5 -41q-122 0 -199 74l57 92q72 -56 137 -56q59 0 59 37v1q0 20 -20.5 31.5t-89.5 32.5q-103 31 -144.5 62t-41.5 84v1q0 85 87 117q-38 35 -38 90v1q0 70 50.5 110.5t139.5 40.5q117 0 191 -71l-57 -92
q-64 54 -129 54q-60 0 -60 -36v-1q0 -18 22.5 -32.5t86.5 -33.5q103 -31 144.5 -62t41.5 -84v-1zM394 330v2q0 20 -22 34.5t-81 34.5q-47 16 -72 16q-21 0 -34.5 -14t-13.5 -33v-2q0 -20 22 -34.5t81 -34.5q47 -16 72 -16q21 0 34.5 14t13.5 33z" />
    <glyph glyph-name="dieresis" unicode="&#xa8;" 
d="M417 596h-134v125h134v-125zM217 596h-134v125h134v-125z" />
    <glyph glyph-name="copyright" unicode="&#xa9;" horiz-adv-x="737" 
d="M693 355v-10q0 -151 -94.5 -253.5t-231.5 -102.5t-230 102t-93 253v10q0 151 94 254t231 103t230.5 -102.5t93.5 -253.5zM652 345v10q0 135 -80.5 226t-202.5 91q-123 0 -204 -91.5t-81 -226.5v-11q0 -135 80.5 -225.5t202.5 -90.5q123 0 204 91.5t81 226.5zM500 206
q-52 -52 -126 -52t-122 54.5t-48 141.5v5q0 87 49 142t125 55q70 0 119 -44l-38 -66q-41 34 -79 34q-41 0 -66.5 -32.5t-25.5 -87.5v-6q0 -55 25.5 -87.5t66.5 -32.5q38 0 81 36z" />
    <glyph glyph-name="ordfeminine" unicode="&#xaa;" horiz-adv-x="348" 
d="M288 406h-77v32q-28 -38 -76 -38q-38 0 -63 24t-25 65v3q0 48 28 71.5t75 23.5q31 0 62 -12v9q0 52 -57 52q-28 0 -71 -16l-15 63q47 21 99 21q120 0 120 -120v-178zM294 285h-250v60h250v-60zM213 502v26q-27 9 -44 9q-46 0 -46 -41v-1q0 -38 38 -38q23 0 37.5 12.5
t14.5 32.5z" />
    <glyph glyph-name="guillemotleft" unicode="&#xab;" horiz-adv-x="593" 
d="M554 97l-110 -57l-157 224v8l157 224l109 -55l-123 -172zM303 97l-110 -57l-157 224v8l157 224l109 -55l-123 -172z" />
    <glyph glyph-name="logicalnot" unicode="&#xac;" horiz-adv-x="555" 
d="M359 411h-305v133h447v-303h-142v170z" />
    <glyph glyph-name="uni00AD" unicode="&#xad;" horiz-adv-x="386" 
d="M339 241h-293v138h293v-138z" />
    <glyph glyph-name="registered" unicode="&#xae;" horiz-adv-x="737" 
d="M693 355v-10q0 -151 -94.5 -253.5t-231.5 -102.5t-230 102t-93 253v10q0 151 94 254t231 103t230.5 -102.5t93.5 -253.5zM652 345v10q0 135 -80.5 226t-202.5 91q-123 0 -204 -91.5t-81 -226.5v-11q0 -135 80.5 -225.5t202.5 -90.5q123 0 204 91.5t81 226.5zM519 426v-2
q0 -82 -72 -114l81 -144h-90l-71 127h-51v-127h-79v385h141q64 0 102.5 -32.5t38.5 -92.5zM439 421v1q0 58 -64 58h-59v-117h61q29 0 45.5 15.5t16.5 42.5z" />
    <glyph glyph-name="macron" unicode="&#xaf;" 
d="M416 602h-332v98h332v-98z" />
    <glyph glyph-name="degree" unicode="&#xb0;" horiz-adv-x="418" 
d="M363 534q0 -69 -46 -118.5t-109 -49.5t-108.5 49.5t-45.5 118.5v3q0 69 45.5 119t108.5 50t109 -50t46 -119v-3zM284 534v3q0 41 -22 67t-54 26t-53 -26t-21 -67v-3q0 -41 21 -67t53 -26t54 26t22 67z" />
    <glyph glyph-name="plusminus" unicode="&#xb1;" 
d="M0 0v700h500v-700h-500zM81 49h339l-170 255zM49 96l171 254l-171 254v-508zM450 96v508l-171 -254zM250 395l170 255h-339z" />
    <glyph glyph-name="twosuperior" unicode="&#xb2;" 
d="M0 0v700h500v-700h-500zM81 49h339l-170 255zM49 96l171 254l-171 254v-508zM450 96v508l-171 -254zM250 395l170 255h-339z" />
    <glyph glyph-name="threesuperior" unicode="&#xb3;" 
d="M0 0v700h500v-700h-500zM81 49h339l-170 255zM49 96l171 254l-171 254v-508zM450 96v508l-171 -254zM250 395l170 255h-339z" />
    <glyph glyph-name="acute" unicode="&#xb4;" 
d="M375 715l-124 -122h-102l108 176z" />
    <glyph glyph-name="mu" unicode="&#xb5;" horiz-adv-x="552" 
d="M495 0h-142v60q-25 -35 -47 -50.5t-55 -15.5q-28 0 -52 13v-158h-142v687h142v-323q0 -46 19.5 -70.5t55.5 -24.5q37 0 58 24.5t21 70.5v323h142v-536z" />
    <glyph glyph-name="paragraph" unicode="&#xb6;" horiz-adv-x="521" 
d="M291 700h159v-700h-145v228h-17q-114 2 -187 62.5t-73 172.5v1q0 113 72.5 174.5t190.5 61.5z" />
    <glyph glyph-name="periodcentered" unicode="&#xb7;" horiz-adv-x="272" 
d="M213 233h-155v153h155v-153z" />
    <glyph glyph-name="cedilla" unicode="&#xb8;" 
d="M313 13l-72 -176l-119 48l92 128h99z" />
    <glyph glyph-name="onesuperior" unicode="&#xb9;" 
d="M0 0v700h500v-700h-500zM81 49h339l-170 255zM49 96l171 254l-171 254v-508zM450 96v508l-171 -254zM250 395l170 255h-339z" />
    <glyph glyph-name="ordmasculine" unicode="&#xba;" horiz-adv-x="348" 
d="M309 550q0 -66 -38.5 -108.5t-97.5 -42.5q-58 0 -96 42t-38 108v6q0 66 38.5 108t96.5 42q59 0 97 -42t38 -108v-5zM302 285h-256v60h256v-60zM232 549v6q0 36 -16 59.5t-43 23.5t-42 -22.5t-15 -59.5v-7q0 -36 16 -59.5t42 -23.5q27 0 42.5 23t15.5 60z" />
    <glyph glyph-name="guillemotright" unicode="&#xbb;" horiz-adv-x="593" 
d="M558 264l-158 -224l-109 56l124 172l-124 171l109 57l158 -224v-8zM307 264l-158 -224l-110 56l125 172l-124 171l109 57l158 -224v-8z" />
    <glyph glyph-name="onequarter" unicode="&#xbc;" 
d="M0 0v700h500v-700h-500zM81 49h339l-170 255zM49 96l171 254l-171 254v-508zM450 96v508l-171 -254zM250 395l170 255h-339z" />
    <glyph glyph-name="onehalf" unicode="&#xbd;" 
d="M0 0v700h500v-700h-500zM81 49h339l-170 255zM49 96l171 254l-171 254v-508zM450 96v508l-171 -254zM250 395l170 255h-339z" />
    <glyph glyph-name="threequarters" unicode="&#xbe;" 
d="M0 0v700h500v-700h-500zM81 49h339l-170 255zM49 96l171 254l-171 254v-508zM450 96v508l-171 -254zM250 395l170 255h-339z" />
    <glyph glyph-name="questiondown" unicode="&#xbf;" horiz-adv-x="477" 
d="M186 700h155v-153h-155v153zM31 195q0 151 173 194l11 79h95l19 -166l-4 -5q-152 -13 -152 -98v-2q0 -34 24 -53.5t65 -19.5q71 0 131 55l64 -103q-84 -84 -204 -84q-101 0 -161.5 53.5t-60.5 145.5v4z" />
    <glyph glyph-name="Agrave" unicode="&#xc0;" horiz-adv-x="672" 
d="M655 0h-149l-52 152h-240l-52 -152h-145l250 704h138zM410 280l-76 228l-77 -228h153zM396 750h-102l-124 122l118 54z" />
    <glyph glyph-name="Aacute" unicode="&#xc1;" horiz-adv-x="672" 
d="M655 0h-149l-52 152h-240l-52 -152h-145l250 704h138zM410 280l-76 228l-77 -228h153zM500 872l-124 -122h-102l108 176z" />
    <glyph glyph-name="Acircumflex" unicode="&#xc2;" horiz-adv-x="672" 
d="M655 0h-149l-52 152h-240l-52 -152h-145l250 704h138zM410 280l-76 228l-77 -228h153zM509 750h-103l-71 79l-71 -79h-101l108 157h130z" />
    <glyph glyph-name="Atilde" unicode="&#xc3;" horiz-adv-x="672" 
d="M655 0h-149l-52 152h-240l-52 -152h-145l250 704h138zM410 280l-76 228l-77 -228h153zM523 877q-28 -129 -113 -129q-32 0 -87 24q-36 17 -51 17q-19 0 -29 -11t-21 -38l-76 23q30 129 113 129q36 0 86 -23q32 -17 53 -17q19 0 29 11.5t20 37.5z" />
    <glyph glyph-name="Adieresis" unicode="&#xc4;" horiz-adv-x="672" 
d="M655 0h-149l-52 152h-240l-52 -152h-145l250 704h138zM410 280l-76 228l-77 -228h153zM503 753h-134v125h134v-125zM303 753h-134v125h134v-125z" />
    <glyph glyph-name="Aring" unicode="&#xc5;" horiz-adv-x="672" 
d="M655 0h-149l-52 151h-241l-51 -151h-146l243 682q-40 35 -40 88v3q0 47 35 81.5t82 34.5t82 -34.5t35 -81.5v-3q0 -52 -41 -88zM392 770v2q0 24 -16.5 42t-39.5 18q-24 0 -40.5 -18t-16.5 -42v-2q0 -23 17 -41t40 -18t39.5 17.5t16.5 41.5zM410 279l-76 229l-77 -229h153
z" />
    <glyph glyph-name="AE" unicode="&#xc6;" horiz-adv-x="898" 
d="M854 0h-437v151h-198l-68 -151h-145l319 700h524v-131h-289v-152h253v-130h-253v-157h294v-130zM417 279v289h-16l-124 -289h140z" />
    <glyph glyph-name="Ccedilla" unicode="&#xc7;" horiz-adv-x="617" 
d="M280 -1q-106 26 -171 118.5t-65 227.5v9q0 159 89 257.5t228 98.5q129 0 217 -80l-68 -117q-73 62 -146 62q-75 0 -122.5 -59t-47.5 -160v-10q0 -103 47 -162t124 -59q75 0 149 64l69 -105q-87 -87 -203 -93l-63 -154l-119 48z" />
    <glyph glyph-name="Egrave" unicode="&#xc8;" horiz-adv-x="568" 
d="M524 0h-454v700h450v-130h-307v-153h270v-130h-270v-157h311v-130zM369 750h-102l-124 122l118 54z" />
    <glyph glyph-name="Eacute" unicode="&#xc9;" horiz-adv-x="568" 
d="M524 0h-454v700h450v-130h-307v-153h270v-130h-270v-157h311v-130zM444 872l-124 -122h-102l108 176z" />
    <glyph glyph-name="Ecircumflex" unicode="&#xca;" horiz-adv-x="568" 
d="M524 0h-454v700h450v-130h-307v-153h270v-130h-270v-157h311v-130zM465 750h-103l-71 79l-71 -79h-101l108 157h130z" />
    <glyph glyph-name="Edieresis" unicode="&#xcb;" horiz-adv-x="568" 
d="M524 0h-454v700h450v-130h-307v-153h270v-130h-270v-157h311v-130zM460 753h-134v125h134v-125zM260 753h-134v125h134v-125z" />
    <glyph glyph-name="Igrave" unicode="&#xcc;" horiz-adv-x="295" 
d="M219 0h-144v700h144v-700zM203 750h-102l-124 122l118 54z" />
    <glyph glyph-name="Iacute" unicode="&#xcd;" horiz-adv-x="295" 
d="M219 0h-144v700h144v-700zM315 872l-124 -122h-102l108 176z" />
    <glyph glyph-name="Icircumflex" unicode="&#xce;" horiz-adv-x="295" 
d="M219 0h-144v700h144v-700zM320 750h-103l-71 79l-71 -79h-101l108 157h130z" />
    <glyph glyph-name="Idieresis" unicode="&#xcf;" horiz-adv-x="295" 
d="M219 0h-144v700h144v-700zM314 753h-134v125h134v-125zM114 753h-134v125h134v-125z" />
    <glyph glyph-name="Eth" unicode="&#xd0;" horiz-adv-x="702" 
d="M657 346q0 -154 -91.5 -250t-241.5 -96h-225v285h-68v132h68v283h225q150 0 241.5 -96t91.5 -250v-8zM508 345v7q0 102 -50 159t-131 57h-86v-151h124v-132h-124v-155h86q81 0 131 56.5t50 158.5z" />
    <glyph glyph-name="Ntilde" unicode="&#xd1;" horiz-adv-x="681" 
d="M612 0h-125l-276 423v-423h-141v700h133l266 -408v408h143v-700zM531 877q-28 -129 -113 -129q-32 0 -87 24q-36 17 -51 17q-19 0 -29 -11t-21 -38l-76 23q30 129 113 129q36 0 86 -23q32 -17 53 -17q19 0 29 11.5t20 37.5z" />
    <glyph glyph-name="Ograve" unicode="&#xd2;" horiz-adv-x="721" 
d="M676 345q0 -156 -89 -256t-227 -100q-139 0 -227.5 99t-88.5 255v12q0 157 89 256.5t228 99.5q138 0 226.5 -99t88.5 -255v-12zM527 343v12q0 102 -46.5 162.5t-120.5 60.5q-75 0 -120.5 -59.5t-45.5 -161.5v-12q0 -102 46.5 -162.5t120.5 -60.5q75 0 120.5 59.5
t45.5 161.5zM409 750h-102l-124 122l118 54z" />
    <glyph glyph-name="Oacute" unicode="&#xd3;" horiz-adv-x="721" 
d="M676 345q0 -156 -89 -256t-227 -100q-139 0 -227.5 99t-88.5 255v12q0 157 89 256.5t228 99.5q138 0 226.5 -99t88.5 -255v-12zM527 343v12q0 102 -46.5 162.5t-120.5 60.5q-75 0 -120.5 -59.5t-45.5 -161.5v-12q0 -102 46.5 -162.5t120.5 -60.5q75 0 120.5 59.5
t45.5 161.5zM531 872l-124 -122h-102l108 176z" />
    <glyph glyph-name="Ocircumflex" unicode="&#xd4;" horiz-adv-x="721" 
d="M676 345q0 -156 -89 -256t-227 -100q-139 0 -227.5 99t-88.5 255v12q0 157 89 256.5t228 99.5q138 0 226.5 -99t88.5 -255v-12zM527 343v12q0 102 -46.5 162.5t-120.5 60.5q-75 0 -120.5 -59.5t-45.5 -161.5v-12q0 -102 46.5 -162.5t120.5 -60.5q75 0 120.5 59.5
t45.5 161.5zM533 750h-103l-71 79l-71 -79h-101l108 157h130z" />
    <glyph glyph-name="Otilde" unicode="&#xd5;" horiz-adv-x="721" 
d="M676 345q0 -156 -89 -256t-227 -100q-139 0 -227.5 99t-88.5 255v12q0 157 89 256.5t228 99.5q138 0 226.5 -99t88.5 -255v-12zM527 343v12q0 102 -46.5 162.5t-120.5 60.5q-75 0 -120.5 -59.5t-45.5 -161.5v-12q0 -102 46.5 -162.5t120.5 -60.5q75 0 120.5 59.5
t45.5 161.5zM548 877q-28 -129 -113 -129q-32 0 -87 24q-36 17 -51 17q-19 0 -29 -11t-21 -38l-76 23q30 129 113 129q36 0 86 -23q32 -17 53 -17q19 0 29 11.5t20 37.5z" />
    <glyph glyph-name="Odieresis" unicode="&#xd6;" horiz-adv-x="721" 
d="M676 345q0 -156 -89 -256t-227 -100q-139 0 -227.5 99t-88.5 255v12q0 157 89 256.5t228 99.5q138 0 226.5 -99t88.5 -255v-12zM527 343v12q0 102 -46.5 162.5t-120.5 60.5q-75 0 -120.5 -59.5t-45.5 -161.5v-12q0 -102 46.5 -162.5t120.5 -60.5q75 0 120.5 59.5
t45.5 161.5zM527 753h-134v125h134v-125zM327 753h-134v125h134v-125z" />
    <glyph glyph-name="multiply" unicode="&#xd7;" 
d="M0 0v700h500v-700h-500zM81 49h339l-170 255zM49 96l171 254l-171 254v-508zM450 96v508l-171 -254zM250 395l170 255h-339z" />
    <glyph glyph-name="Oslash" unicode="&#xd8;" horiz-adv-x="721" 
d="M676 355v-10q0 -156 -89.5 -256t-227.5 -100q-93 0 -163 44l-31 -38h-123l79 105q-77 98 -77 243v11q0 156 89.5 256.5t227.5 100.5q91 0 165 -48l32 42h124l-82 -110q76 -95 76 -240zM443 544q-35 36 -84 36q-75 0 -121.5 -61.5t-46.5 -163.5v-10q0 -59 25 -107z
M529 343v11q0 55 -25 100l-227 -304q35 -32 84 -32q75 0 121.5 61.5t46.5 163.5z" />
    <glyph glyph-name="Ugrave" unicode="&#xd9;" horiz-adv-x="654" 
d="M592 274q0 -140 -71 -212t-195 -72t-194.5 71.5t-70.5 209.5v429h144v-430q0 -73 32 -110t90 -37t90 36.5t32 107.5v433h143v-426zM385 747h-102l-124 122l118 54z" />
    <glyph glyph-name="Uacute" unicode="&#xda;" horiz-adv-x="654" 
d="M592 274q0 -140 -71 -212t-195 -72t-194.5 71.5t-70.5 209.5v429h144v-430q0 -73 32 -110t90 -37t90 36.5t32 107.5v433h143v-426zM494 869l-124 -122h-102l108 176z" />
    <glyph glyph-name="Ucircumflex" unicode="&#xdb;" horiz-adv-x="654" 
d="M592 274q0 -140 -71 -212t-195 -72t-194.5 71.5t-70.5 209.5v429h144v-430q0 -73 32 -110t90 -37t90 36.5t32 107.5v433h143v-426zM500 750h-103l-71 79l-71 -79h-101l108 157h130z" />
    <glyph glyph-name="Udieresis" unicode="&#xdc;" horiz-adv-x="654" 
d="M592 274q0 -140 -71 -212t-195 -72t-194.5 71.5t-70.5 209.5v429h144v-430q0 -73 32 -110t90 -37t90 36.5t32 107.5v433h143v-426zM494 753h-134v125h134v-125zM294 753h-134v125h134v-125z" />
    <glyph glyph-name="Yacute" unicode="&#xdd;" horiz-adv-x="616" 
d="M607 700l-227 -422v-278h-145v276l-227 424h164l137 -275l139 275h159zM478 869l-124 -122h-102l108 176z" />
    <glyph glyph-name="Thorn" unicode="&#xde;" horiz-adv-x="586" 
d="M557 358q0 -116 -73 -180t-188 -66h-82v-112h-145v700h145v-101h92q113 0 182 -64t69 -177zM411 355q0 55 -30 84t-83 29h-84v-226h85q51 0 81.5 31t30.5 82z" />
    <glyph glyph-name="germandbls" unicode="&#xdf;" horiz-adv-x="554" 
d="M518 200q0 -97 -66.5 -150.5t-182.5 -51.5v109q53 3 81 28.5t28 69.5q0 41 -29.5 67.5t-79.5 34.5v96q77 50 77 122v2q0 37 -19 58.5t-52 21.5q-35 0 -56 -27.5t-21 -73.5v-506h-141v501q0 105 60 166t164 61q95 0 149 -53t54 -133v-3q0 -104 -86 -163q120 -53 120 -174
v-2z" />
    <glyph glyph-name="agrave" unicode="&#xe0;" horiz-adv-x="519" 
d="M467 0h-139v57q-52 -66 -139 -66q-69 0 -114.5 43t-45.5 118v7q0 85 50.5 128t136.5 43q60 0 113 -21v15q0 94 -103 94q-59 0 -130 -28l-27 115q84 37 180 37q109 0 163.5 -56t54.5 -161v-325zM330 175v46q-34 17 -79 17q-40 0 -62.5 -18.5t-22.5 -53.5v-7q0 -32 19 -49
t50 -17q42 0 68.5 22.5t26.5 59.5zM320 593h-102l-124 122l118 54z" />
    <glyph glyph-name="aacute" unicode="&#xe1;" horiz-adv-x="519" 
d="M467 0h-139v57q-52 -66 -139 -66q-69 0 -114.5 43t-45.5 118v7q0 85 50.5 128t136.5 43q60 0 113 -21v15q0 94 -103 94q-59 0 -130 -28l-27 115q84 37 180 37q109 0 163.5 -56t54.5 -161v-325zM330 175v46q-34 17 -79 17q-40 0 -62.5 -18.5t-22.5 -53.5v-7q0 -32 19 -49
t50 -17q42 0 68.5 22.5t26.5 59.5zM417 715l-124 -122h-102l108 176z" />
    <glyph glyph-name="acircumflex" unicode="&#xe2;" horiz-adv-x="519" 
d="M467 0h-139v57q-52 -66 -139 -66q-69 0 -114.5 43t-45.5 118v7q0 85 50.5 128t136.5 43q60 0 113 -21v15q0 94 -103 94q-59 0 -130 -28l-27 115q84 37 180 37q109 0 163.5 -56t54.5 -161v-325zM330 175v46q-34 17 -79 17q-40 0 -62.5 -18.5t-22.5 -53.5v-7q0 -32 19 -49
t50 -17q42 0 68.5 22.5t26.5 59.5zM429 593h-103l-71 79l-71 -79h-101l108 157h130z" />
    <glyph glyph-name="atilde" unicode="&#xe3;" horiz-adv-x="519" 
d="M467 0h-139v57q-52 -66 -139 -66q-69 0 -114.5 43t-45.5 118v7q0 85 50.5 128t136.5 43q60 0 113 -21v15q0 94 -103 94q-59 0 -130 -28l-27 115q84 37 180 37q109 0 163.5 -56t54.5 -161v-325zM330 175v46q-34 17 -79 17q-40 0 -62.5 -18.5t-22.5 -53.5v-7q0 -32 19 -49
t50 -17q42 0 68.5 22.5t26.5 59.5zM447 720q-28 -129 -113 -129q-32 0 -87 24q-36 17 -51 17q-19 0 -29 -11t-21 -38l-76 23q30 129 113 129q36 0 86 -23q32 -17 53 -17q19 0 29 11.5t20 37.5z" />
    <glyph glyph-name="adieresis" unicode="&#xe4;" horiz-adv-x="519" 
d="M467 0h-139v57q-52 -66 -139 -66q-69 0 -114.5 43t-45.5 118v7q0 85 50.5 128t136.5 43q60 0 113 -21v15q0 94 -103 94q-59 0 -130 -28l-27 115q84 37 180 37q109 0 163.5 -56t54.5 -161v-325zM330 175v46q-34 17 -79 17q-40 0 -62.5 -18.5t-22.5 -53.5v-7q0 -32 19 -49
t50 -17q42 0 68.5 22.5t26.5 59.5zM423 596h-134v125h134v-125zM223 596h-134v125h134v-125z" />
    <glyph glyph-name="aring" unicode="&#xe5;" horiz-adv-x="519" 
d="M467 0h-139v57q-52 -66 -139 -66q-69 0 -114.5 43t-45.5 118v7q0 85 50.5 128t136.5 43q60 0 113 -21v15q0 94 -103 94q-59 0 -130 -28l-27 115q84 37 180 37q109 0 163.5 -56t54.5 -161v-325zM330 175v46q-34 17 -79 17q-40 0 -62.5 -18.5t-22.5 -53.5v-7q0 -32 19 -49
t50 -17q42 0 68.5 22.5t26.5 59.5zM370 705v-3q0 -46 -34.5 -80.5t-81.5 -34.5t-82 34.5t-35 80.5v3q0 47 35 81.5t82 34.5t81.5 -34.5t34.5 -81.5zM310 703v2q0 24 -16.5 42t-39.5 18q-24 0 -41 -18t-17 -42v-2q0 -23 17.5 -41.5t40.5 -18.5t39.5 18t16.5 42z" />
    <glyph glyph-name="ae" unicode="&#xe6;" horiz-adv-x="825" 
d="M206 -9q-81 0 -129 43.5t-48 120.5v5q0 85 50.5 127.5t136.5 42.5q60 0 113 -21v15q0 94 -103 94q-59 0 -130 -28l-27 115q84 37 180 37q112 0 162 -65q59 68 152 68q109 0 167.5 -79.5t58.5 -204.5l-1 -47h-321q19 -107 116 -107q61 0 120 50l63 -86q-74 -82 -189 -82
q-117 0 -185 87q-82 -85 -186 -85zM237 95q62 0 113 57q-11 30 -16 69q-39 17 -83 17q-85 0 -85 -72v-4q0 -33 19 -50t52 -17zM465 309h187q-5 56 -28.5 88t-63.5 32q-39 0 -63.5 -31t-31.5 -89z" />
    <glyph glyph-name="ccedilla" unicode="&#xe7;" horiz-adv-x="485" 
d="M208 0q-78 23 -125 93.5t-47 167.5v11q0 119 70 196t177 77t172 -67l-64 -106q-49 47 -104 47q-48 0 -79 -40t-31 -105v-12q0 -67 31.5 -107t83.5 -40t104 47l62 -98q-65 -67 -151 -74l-63 -153l-119 48z" />
    <glyph glyph-name="egrave" unicode="&#xe8;" horiz-adv-x="534" 
d="M498 261q0 -27 -2 -47h-320q19 -107 116 -107q63 0 119 50l64 -86q-74 -82 -188 -82q-109 0 -180.5 75t-71.5 197v10q0 119 66.5 196.5t168.5 77.5q110 0 169 -79.5t59 -204.5zM361 309q-5 56 -28.5 88t-62.5 32t-63.5 -31t-31.5 -89h186zM321 593h-102l-124 122l118 54z
" />
    <glyph glyph-name="eacute" unicode="&#xe9;" horiz-adv-x="534" 
d="M498 261q0 -27 -2 -47h-320q19 -107 116 -107q63 0 119 50l64 -86q-74 -82 -188 -82q-109 0 -180.5 75t-71.5 197v10q0 119 66.5 196.5t168.5 77.5q110 0 169 -79.5t59 -204.5zM361 309q-5 56 -28.5 88t-62.5 32t-63.5 -31t-31.5 -89h186zM438 715l-124 -122h-102
l108 176z" />
    <glyph glyph-name="ecircumflex" unicode="&#xea;" horiz-adv-x="534" 
d="M498 261q0 -27 -2 -47h-320q19 -107 116 -107q63 0 119 50l64 -86q-74 -82 -188 -82q-109 0 -180.5 75t-71.5 197v10q0 119 66.5 196.5t168.5 77.5q110 0 169 -79.5t59 -204.5zM361 309q-5 56 -28.5 88t-62.5 32t-63.5 -31t-31.5 -89h186zM442 593h-103l-71 79l-71 -79
h-101l108 157h130z" />
    <glyph glyph-name="edieresis" unicode="&#xeb;" horiz-adv-x="534" 
d="M498 261q0 -27 -2 -47h-320q19 -107 116 -107q63 0 119 50l64 -86q-74 -82 -188 -82q-109 0 -180.5 75t-71.5 197v10q0 119 66.5 196.5t168.5 77.5q110 0 169 -79.5t59 -204.5zM361 309q-5 56 -28.5 88t-62.5 32t-63.5 -31t-31.5 -89h186zM436 596h-134v125h134v-125z
M236 596h-134v125h134v-125z" />
    <glyph glyph-name="igrave" unicode="&#xec;" horiz-adv-x="267" 
d="M204 0h-142v536h142v-536zM190 593h-102l-124 122l118 54z" />
    <glyph glyph-name="iacute" unicode="&#xed;" horiz-adv-x="267" 
d="M204 0h-142v536h142v-536zM300 715l-124 -122h-102l108 176z" />
    <glyph glyph-name="icircumflex" unicode="&#xee;" horiz-adv-x="267" 
d="M204 0h-142v536h142v-536zM307 593h-103l-71 79l-71 -79h-101l108 157h130z" />
    <glyph glyph-name="idieresis" unicode="&#xef;" horiz-adv-x="267" 
d="M204 0h-142v536h142v-536zM301 596h-134v125h134v-125zM101 596h-134v125h134v-125z" />
    <glyph glyph-name="eth" unicode="&#xf0;" horiz-adv-x="565" 
d="M527 251q0 -116 -68.5 -189t-181.5 -73q-105 0 -173 70.5t-68 181.5v5q0 105 54.5 168t139.5 63q60 0 112 -37l-76 116l-101 -45l-52 75l105 47l-57 89h153l21 -37l88 39l52 -76l-92 -40l65 -101q79 -127 79 -251v-5zM388 239v4q0 60 -29.5 95t-77.5 35t-77 -34.5
t-29 -95.5v-4q0 -60 29.5 -95t77.5 -35q49 0 77.5 34.5t28.5 95.5z" />
    <glyph glyph-name="ntilde" unicode="&#xf1;" horiz-adv-x="550" 
d="M496 0h-142v323q0 46 -20 70.5t-56 24.5q-37 0 -58 -24.5t-21 -70.5v-323h-142v536h142v-72q59 82 138 82q76 0 117.5 -48.5t41.5 -132.5v-365zM468 720q-28 -129 -113 -129q-32 0 -87 24q-36 17 -51 17q-19 0 -29 -11t-21 -38l-76 23q30 129 113 129q36 0 86 -23
q32 -17 53 -17q19 0 29 11.5t20 37.5z" />
    <glyph glyph-name="ograve" unicode="&#xf2;" horiz-adv-x="578" 
d="M542 262q0 -119 -72 -196t-182 -77q-109 0 -180.5 76.5t-71.5 195.5v11q0 119 72 196t182 77q109 0 180.5 -76.5t71.5 -195.5v-11zM401 260v12q0 66 -31 108t-82 42q-52 0 -82 -41t-30 -107v-12q0 -66 31.5 -108t82.5 -42t81 41t30 107zM342 593h-102l-124 122l118 54z
" />
    <glyph glyph-name="oacute" unicode="&#xf3;" horiz-adv-x="578" 
d="M542 262q0 -119 -72 -196t-182 -77q-109 0 -180.5 76.5t-71.5 195.5v11q0 119 72 196t182 77q109 0 180.5 -76.5t71.5 -195.5v-11zM401 260v12q0 66 -31 108t-82 42q-52 0 -82 -41t-30 -107v-12q0 -66 31.5 -108t82.5 -42t81 41t30 107zM461 715l-124 -122h-102l108 176z
" />
    <glyph glyph-name="ocircumflex" unicode="&#xf4;" horiz-adv-x="578" 
d="M542 262q0 -119 -72 -196t-182 -77q-109 0 -180.5 76.5t-71.5 195.5v11q0 119 72 196t182 77q109 0 180.5 -76.5t71.5 -195.5v-11zM401 260v12q0 66 -31 108t-82 42q-52 0 -82 -41t-30 -107v-12q0 -66 31.5 -108t82.5 -42t81 41t30 107zM462 593h-103l-71 79l-71 -79
h-101l108 157h130z" />
    <glyph glyph-name="otilde" unicode="&#xf5;" horiz-adv-x="578" 
d="M542 262q0 -119 -72 -196t-182 -77q-109 0 -180.5 76.5t-71.5 195.5v11q0 119 72 196t182 77q109 0 180.5 -76.5t71.5 -195.5v-11zM401 260v12q0 66 -31 108t-82 42q-52 0 -82 -41t-30 -107v-12q0 -66 31.5 -108t82.5 -42t81 41t30 107zM477 720q-28 -129 -113 -129
q-32 0 -87 24q-36 17 -51 17q-19 0 -29 -11t-21 -38l-76 23q30 129 113 129q36 0 86 -23q32 -17 53 -17q19 0 29 11.5t20 37.5z" />
    <glyph glyph-name="odieresis" unicode="&#xf6;" horiz-adv-x="578" 
d="M542 262q0 -119 -72 -196t-182 -77q-109 0 -180.5 76.5t-71.5 195.5v11q0 119 72 196t182 77q109 0 180.5 -76.5t71.5 -195.5v-11zM401 260v12q0 66 -31 108t-82 42q-52 0 -82 -41t-30 -107v-12q0 -66 31.5 -108t82.5 -42t81 41t30 107zM456 596h-134v125h134v-125z
M256 596h-134v125h134v-125z" />
    <glyph glyph-name="divide" unicode="&#xf7;" horiz-adv-x="555" 
d="M54 288v133h447v-133h-447zM200 500v149h149v-149h-149zM200 60v149h149v-149h-149z" />
    <glyph glyph-name="oslash" unicode="&#xf8;" horiz-adv-x="578" 
d="M541 272v-10q0 -119 -72 -196t-181 -77q-71 0 -128 34l-24 -28h-114l69 89q-55 72 -55 177v9q0 119 72 197t181 78q69 0 127 -34l25 31h113l-70 -91q57 -74 57 -179zM339 406q-22 19 -51 19q-52 0 -84.5 -43t-32.5 -110v-10q0 -29 12 -56zM406 260v11q0 29 -12 58
l-156 -202q20 -19 51 -19q52 0 84.5 42.5t32.5 109.5z" />
    <glyph glyph-name="ugrave" unicode="&#xf9;" horiz-adv-x="550" 
d="M492 0h-142v72q-59 -82 -138 -82q-75 0 -116.5 48.5t-41.5 132.5v365h142v-323q0 -46 19.5 -70.5t55.5 -24.5q37 0 58 24.5t21 70.5v323h142v-536zM336 593h-102l-124 122l118 54z" />
    <glyph glyph-name="uacute" unicode="&#xfa;" horiz-adv-x="550" 
d="M492 0h-142v72q-59 -82 -138 -82q-75 0 -116.5 48.5t-41.5 132.5v365h142v-323q0 -46 19.5 -70.5t55.5 -24.5q37 0 58 24.5t21 70.5v323h142v-536zM437 715l-124 -122h-102l108 176z" />
    <glyph glyph-name="ucircumflex" unicode="&#xfb;" horiz-adv-x="550" 
d="M492 0h-142v72q-59 -82 -138 -82q-75 0 -116.5 48.5t-41.5 132.5v365h142v-323q0 -46 19.5 -70.5t55.5 -24.5q37 0 58 24.5t21 70.5v323h142v-536zM447 593h-103l-71 79l-71 -79h-101l108 157h130z" />
    <glyph glyph-name="udieresis" unicode="&#xfc;" horiz-adv-x="550" 
d="M492 0h-142v72q-59 -82 -138 -82q-75 0 -116.5 48.5t-41.5 132.5v365h142v-323q0 -46 19.5 -70.5t55.5 -24.5q37 0 58 24.5t21 70.5v323h142v-536zM441 596h-134v125h134v-125zM241 596h-134v125h134v-125z" />
    <glyph glyph-name="yacute" unicode="&#xfd;" horiz-adv-x="529" 
d="M512 536l-180 -541q-27 -80 -64 -114.5t-102 -34.5q-67 0 -122 31l42 106q33 -19 62 -19q34 0 50 35l-181 537h148l101 -358l100 358h146zM423 715l-124 -122h-102l108 176z" />
    <glyph glyph-name="thorn" unicode="&#xfe;" horiz-adv-x="587" 
d="M549 260q0 -130 -59.5 -200t-145.5 -70q-85 0 -145 78v-219h-142v873h142v-260q59 84 145 84t145.5 -70.5t59.5 -200.5v-15zM407 262v11q0 67 -30 107.5t-75 40.5t-75 -40.5t-30 -107.5v-11q0 -67 30 -107.5t75 -40.5t75 40.5t30 107.5z" />
    <glyph glyph-name="ydieresis" unicode="&#xff;" horiz-adv-x="529" 
d="M512 536l-180 -541q-27 -80 -64 -114.5t-102 -34.5q-67 0 -122 31l42 106q33 -19 62 -19q34 0 50 35l-181 537h148l101 -358l100 358h146zM431 596h-134v125h134v-125zM231 596h-134v125h134v-125z" />
    <glyph glyph-name="dotlessi" unicode="&#x131;" horiz-adv-x="267" 
d="M204 0h-142v536h142v-536z" />
    <glyph glyph-name="Lslash" unicode="&#x141;" horiz-adv-x="552" 
d="M525 0h-426v267l-66 -20v134l66 20v299h142v-255l164 49v-134l-164 -49v-179h284v-132z" />
    <glyph glyph-name="lslash" unicode="&#x142;" horiz-adv-x="332" 
d="M236 326v-326h-141v278l-71 -25v134l71 25v310h141v-261l72 24v-134z" />
    <glyph glyph-name="OE" unicode="&#x152;" horiz-adv-x="919" 
d="M875 0h-497q-150 0 -242 95.5t-92 249.5v7q0 154 92.5 251t241.5 97h492v-131h-289v-152h253v-130h-253v-157h294v-130zM437 130v438h-63q-81 0 -130.5 -56t-49.5 -158v-8q0 -103 49.5 -159.5t130.5 -56.5h63z" />
    <glyph glyph-name="oe" unicode="&#x153;" horiz-adv-x="896" 
d="M282 -11q-104 0 -175 77t-71 195v10q0 119 72 196.5t178 77.5q112 0 179 -86q62 86 169 86q109 0 167.5 -79.5t58.5 -204.5l-1 -47h-320q19 -107 116 -107q62 0 119 50l63 -86q-74 -82 -189 -82q-119 0 -184 88q-68 -88 -182 -88zM286 112q50 0 79 41t29 108v11
q0 67 -30 108.5t-79 41.5q-50 0 -79.5 -41t-29.5 -108v-11q0 -66 30.5 -108t79.5 -42zM537 309h186q-5 56 -28.5 88t-62.5 32q-81 0 -95 -120z" />
    <glyph glyph-name="Scaron" unicode="&#x160;" horiz-adv-x="545" 
d="M508 198q0 -96 -64 -151t-167 -55q-141 0 -246 87l64 114q92 -71 179 -71q42 0 66 17t24 49q0 29 -23 49t-95 51q-43 18 -69 31t-53.5 32.5t-42 39.5t-24 49t-9.5 66q0 91 62.5 146.5t160.5 55.5q123 0 214 -68l-56 -119q-87 57 -156 57q-38 0 -59.5 -17t-21.5 -45
q0 -31 22.5 -48t102.5 -53q103 -46 147 -92t44 -125zM445 907l-108 -157h-130l-108 157h103l70 -78l71 78h102z" />
    <glyph glyph-name="scaron" unicode="&#x161;" horiz-adv-x="437" 
d="M405 156q0 -80 -52.5 -123t-135.5 -43q-107 0 -194 64l46 105q79 -55 148 -55q58 0 58 40v2q0 6 -2 11.5t-7 10.5t-10.5 9t-15 9t-17 9t-21.5 10t-23 11q-65 29 -102 65t-37 99v2q0 75 51.5 118.5t131.5 43.5q90 0 167 -48l-41 -108q-73 42 -126 42q-25 0 -38.5 -10
t-13.5 -26v-2q0 -6 2 -11t7 -10t10 -9t15 -9.5t17.5 -9.5t21 -11t22.5 -12q34 -17 53.5 -29t42 -32t33 -44.5t10.5 -56.5v-2zM394 750l-108 -157h-130l-108 157h103l70 -78l71 78h102z" />
    <glyph glyph-name="Ydieresis" unicode="&#x178;" horiz-adv-x="616" 
d="M607 700l-227 -422v-278h-145v276l-227 424h164l137 -275l139 275h159zM475 753h-134v125h134v-125zM275 753h-134v125h134v-125z" />
    <glyph glyph-name="Zcaron" unicode="&#x17d;" horiz-adv-x="598" 
d="M548 0h-497v111l318 460h-308v129h487v-111l-318 -460h318v-129zM475 907l-108 -157h-130l-108 157h103l70 -78l71 78h102z" />
    <glyph glyph-name="zcaron" unicode="&#x17e;" horiz-adv-x="481" 
d="M445 0h-406v100l236 320h-229v116h399v-100l-237 -320h237v-116zM421 750l-108 -157h-130l-108 157h103l70 -78l71 78h102z" />
    <glyph glyph-name="florin" unicode="&#x192;" horiz-adv-x="474" 
d="M446 573q-43 9 -59 9q-61 0 -70 -66l-6 -51h104v-116h-122l-28 -198q-12 -83 -54.5 -119.5t-121.5 -36.5q-30 0 -57 5v118q16 -3 33 -3q54 0 62 58l24 176h-60v116h78l11 81q24 159 175 159q51 0 91 -11v-121z" />
    <glyph glyph-name="circumflex" unicode="&#x2c6;" 
d="M423 593h-103l-71 79l-71 -79h-101l108 157h130z" />
    <glyph glyph-name="caron" unicode="&#x2c7;" 
d="M423 750l-108 -157h-130l-108 157h103l70 -78l71 78h102z" />
    <glyph glyph-name="breve" unicode="&#x2d8;" 
d="M420 742q-6 -73 -52.5 -113.5t-117.5 -40.5t-117.5 40.5t-52.5 113.5h95q16 -61 75 -61t75 61h95z" />
    <glyph glyph-name="dotaccent" unicode="&#x2d9;" 
d="M321 587h-142v132h142v-132z" />
    <glyph glyph-name="ring" unicode="&#x2da;" 
d="M366 705v-3q0 -46 -34.5 -80.5t-81.5 -34.5t-82 34.5t-35 80.5v3q0 47 35 81.5t82 34.5t81.5 -34.5t34.5 -81.5zM306 703v2q0 24 -16.5 42t-39.5 18q-24 0 -41 -18t-17 -42v-2q0 -23 17.5 -41.5t40.5 -18.5t39.5 18t16.5 42z" />
    <glyph glyph-name="ogonek" unicode="&#x2db;" 
d="M369 -161q-95 -4 -144.5 23.5t-49.5 84.5q0 34 16 66h95q-6 -21 -6 -42q0 -30 20 -47t69 -21v-64z" />
    <glyph glyph-name="tilde" unicode="&#x2dc;" 
d="M438 720q-28 -129 -113 -129q-32 0 -87 24q-36 17 -51 17q-19 0 -29 -11t-21 -38l-76 23q30 129 113 129q36 0 86 -23q32 -17 53 -17q19 0 29 11.5t20 37.5z" />
    <glyph glyph-name="hungarumlaut" unicode="&#x2dd;" 
d="M457 715l-126 -122h-98l107 176zM271 715l-123 -122h-99l106 176z" />
    <glyph glyph-name="Omega" unicode="&#x3a9;" horiz-adv-x="674" 
d="M621 0h-259v208q57 14 86.5 64t29.5 121q0 81 -35.5 134.5t-102.5 53.5q-68 0 -105 -54.5t-37 -137.5q0 -70 29 -118.5t85 -62.5v-208h-259v126h160v27q-73 24 -116.5 95t-43.5 158q0 139 82.5 222.5t204.5 83.5q119 0 200 -83t81 -221q0 -88 -43.5 -161.5t-116.5 -93.5
v-27h160v-126z" />
    <glyph glyph-name="pi" unicode="&#x3c0;" 
d="M0 0v700h500v-700h-500zM81 49h339l-170 255zM49 96l171 254l-171 254v-508zM450 96v508l-171 -254zM250 395l170 255h-339z" />
    <glyph glyph-name="afii10023" unicode="&#x401;" horiz-adv-x="568" 
d="M524 0h-454v700h450v-130h-307v-153h270v-130h-270v-157h311v-130zM461 753h-134v125h134v-125zM261 753h-134v125h134v-125z" />
    <glyph glyph-name="afii10051" unicode="&#x402;" horiz-adv-x="737" 
d="M686 230q0 -114 -65.5 -174.5t-158.5 -60.5q-56 0 -94 17l21 125q30 -5 40 -5q41 0 73.5 24.5t32.5 70.5q0 47 -24.5 73t-72.5 26q-74 0 -120 -37v-289h-145v568h-145v132h494v-132h-204v-161q88 45 155 45q87 0 150 -57t63 -165z" />
    <glyph glyph-name="afii10052" unicode="&#x403;" horiz-adv-x="509" 
d="M214 568v-568h-144v700h417v-132h-273zM438 872l-124 -122h-102l108 176z" />
    <glyph glyph-name="afii10053" unicode="&#x404;" horiz-adv-x="617" 
d="M356 -11q-135 0 -223 98t-88 257v11q0 154 85.5 254.5t219.5 100.5q75 0 126 -20t97 -59l-59 -109q-69 57 -148 57q-62 0 -107 -44.5t-60 -120.5h235v-124h-236q14 -79 61 -122.5t115 -43.5q72 0 146 60l67 -107q-88 -88 -231 -88z" />
    <glyph glyph-name="afii10054" unicode="&#x405;" horiz-adv-x="545" 
d="M508 198q0 -96 -64 -151t-167 -55q-141 0 -246 87l64 114q92 -71 179 -71q42 0 66 17t24 49q0 29 -23 49t-95 51q-43 18 -69 31t-53.5 32.5t-42 39.5t-24 49t-9.5 66q0 91 62.5 146.5t160.5 55.5q123 0 214 -68l-56 -119q-87 57 -156 57q-38 0 -59.5 -17t-21.5 -45
q0 -31 22.5 -48t102.5 -53q103 -46 147 -92t44 -125z" />
    <glyph glyph-name="afii10055" unicode="&#x406;" horiz-adv-x="295" 
d="M219 0h-144v700h144v-700z" />
    <glyph glyph-name="afii10056" unicode="&#x407;" horiz-adv-x="295" 
d="M219 0h-144v700h144v-700zM315 753h-134v125h134v-125zM115 753h-134v125h134v-125z" />
    <glyph glyph-name="afii10057" unicode="&#x408;" horiz-adv-x="483" 
d="M422 222q0 -114 -60 -172.5t-164 -58.5q-109 0 -183 76l67 113q53 -53 107 -53q85 0 85 103v470h148v-478z" />
    <glyph glyph-name="afii10058" unicode="&#x409;" horiz-adv-x="964" 
d="M445 0v568h-161v-81q0 -201 -21.5 -308.5t-64.5 -146.5t-122 -39q-29 0 -77 9l15 122q10 -3 24 -3q23 0 38 7t30 32t23.5 71t13.5 126t5 196v147h441v-233h101q114 0 180 -62t66 -170q0 -112 -71 -173.5t-181 -61.5h-239zM589 130h100q48 0 75.5 27.5t27.5 74.5
q0 51 -27.5 77.5t-76.5 26.5h-99v-206z" />
    <glyph glyph-name="afii10059" unicode="&#x40a;" horiz-adv-x="982" 
d="M589 700v-255h130q108 0 171.5 -59t63.5 -162q0 -107 -67.5 -165.5t-173.5 -58.5h-268v311h-231v-311h-144v700h144v-255h231v255h144zM589 130h129q42 0 67 25t25 66q0 46 -24.5 69.5t-68.5 23.5h-128v-184z" />
    <glyph glyph-name="afii10060" unicode="&#x40b;" horiz-adv-x="737" 
d="M318 568v-161q88 45 155 45q94 0 149 -54.5t55 -170.5v-227h-144v197q0 129 -95 129q-74 0 -120 -37v-289h-145v568h-145v132h494v-132h-204z" />
    <glyph glyph-name="afii10061" unicode="&#x40c;" horiz-adv-x="632" 
d="M624 0h-171l-174 288l-65 -82v-206h-144v700h144v-302l228 302h172l-235 -296zM479 872l-124 -122h-102l108 176z" />
    <glyph glyph-name="afii10062" unicode="&#x40e;" horiz-adv-x="620" 
d="M167 -6q-67 0 -114 31l45 105q36 -15 61 -15q51 0 84 65l-233 520h158l151 -349l138 349h153l-223 -529q-40 -96 -88.5 -136.5t-131.5 -40.5zM321 743q-64 0 -104.5 36.5t-49.5 105.5l82 15q15 -64 72 -64q55 0 71 64l81 -15q-9 -69 -49 -105.5t-103 -36.5z" />
    <glyph glyph-name="afii10145" unicode="&#x40f;" horiz-adv-x="653" 
d="M70 0v700h143v-567h227v567h143v-700h-188v-131h-138v131h-187z" />
    <glyph glyph-name="afii10017" unicode="&#x410;" horiz-adv-x="672" 
d="M655 0h-149l-52 152h-240l-52 -152h-145l250 704h138zM410 280l-76 228l-77 -228h153z" />
    <glyph glyph-name="afii10018" unicode="&#x411;" horiz-adv-x="614" 
d="M70 0v700h461v-132h-317v-123h130q108 0 171.5 -59t63.5 -162q0 -107 -67.5 -165.5t-173.5 -58.5h-268zM214 130h129q43 0 67.5 25t24.5 66q0 46 -24.5 69.5t-68.5 23.5h-128v-184z" />
    <glyph glyph-name="afii10019" unicode="&#x412;" horiz-adv-x="624" 
d="M589 193q0 -93 -68.5 -143t-184.5 -50h-266v700h259q104 0 167 -48t63 -135q0 -104 -95 -153q61 -25 93 -63.5t32 -103.5v-4zM416 493q0 79 -98 79h-107v-159h100q105 0 105 80zM445 209q0 84 -109 84h-125v-165h129q50 0 77.5 20.5t27.5 60.5z" />
    <glyph glyph-name="afii10020" unicode="&#x413;" horiz-adv-x="509" 
d="M214 568v-568h-144v700h417v-132h-273z" />
    <glyph glyph-name="afii10021" unicode="&#x414;" horiz-adv-x="668" 
d="M434 568h-163v-11q0 -147 -13.5 -244.5t-46.5 -180.5h223v436zM511 0h-366l-14 -131h-124v263h55q37 91 53.5 200.5t16.5 280.5v87h446v-568h72l-18 -263h-121v131z" />
    <glyph glyph-name="afii10022" unicode="&#x415;" horiz-adv-x="568" 
d="M524 0h-454v700h450v-130h-307v-153h270v-130h-270v-157h311v-130z" />
    <glyph glyph-name="afii10024" unicode="&#x416;" horiz-adv-x="967" 
d="M411 0v176l-65 117l-169 -293h-169l233 390l-226 310h170l226 -320v320h144v-320l226 320h167l-223 -310l233 -390h-169l-170 293l-64 -117v-176h-144z" />
    <glyph glyph-name="afii10025" unicode="&#x417;" horiz-adv-x="556" 
d="M274 -10q-146 0 -252 87l57 109q77 -63 164 -63q126 0 126 81q0 44 -34.5 67.5t-95.5 23.5h-58v120h56q51 0 86.5 26t35.5 63t-30.5 56t-81.5 19q-82 0 -148 -61l-57 103q47 45 103 66.5t141 21.5q95 0 155 -51.5t60 -132.5q0 -112 -109 -160q123 -42 123 -167
q0 -93 -66.5 -150.5t-174.5 -57.5z" />
    <glyph glyph-name="afii10026" unicode="&#x418;" horiz-adv-x="668" 
d="M598 700v-700h-142v439l-253 -439h-133v700h142v-433l252 433h134z" />
    <glyph glyph-name="afii10027" unicode="&#x419;" horiz-adv-x="668" 
d="M598 700v-700h-142v439l-253 -439h-133v700h142v-433l252 433h134zM338 743q-64 0 -104.5 36.5t-49.5 105.5l82 15q15 -64 72 -64q55 0 71 64l81 -15q-9 -69 -49 -105.5t-103 -36.5z" />
    <glyph glyph-name="afii10028" unicode="&#x41a;" horiz-adv-x="632" 
d="M624 0h-171l-174 288l-65 -82v-206h-144v700h144v-302l228 302h172l-235 -296z" />
    <glyph glyph-name="afii10029" unicode="&#x41b;" horiz-adv-x="659" 
d="M38 121q23 0 38 7t30 32t23.5 71t13.5 126t5 196v147h441v-700h-144v568h-161v-81q0 -201 -21.5 -308.5t-64.5 -146.5t-122 -39q-29 0 -77 9l15 122q10 -3 24 -3z" />
    <glyph glyph-name="afii10030" unicode="&#x41c;" horiz-adv-x="753" 
d="M684 0h-142v447l-165 -289h-3l-164 286v-444h-140v700h152l154 -284l155 284h153v-700z" />
    <glyph glyph-name="afii10031" unicode="&#x41d;" horiz-adv-x="659" 
d="M589 0h-144v285h-231v-285h-144v700h144v-281h231v281h144v-700z" />
    <glyph glyph-name="afii10032" unicode="&#x41e;" horiz-adv-x="721" 
d="M676 345q0 -156 -89 -256t-227 -100q-139 0 -227.5 99t-88.5 255v12q0 157 89 256.5t228 99.5q138 0 226.5 -99t88.5 -255v-12zM527 343v12q0 102 -46.5 162.5t-120.5 60.5q-75 0 -120.5 -59.5t-45.5 -161.5v-12q0 -102 46.5 -162.5t120.5 -60.5q75 0 120.5 59.5
t45.5 161.5z" />
    <glyph glyph-name="afii10033" unicode="&#x41f;" horiz-adv-x="653" 
d="M70 0v700h513v-700h-144v568h-225v-568h-144z" />
    <glyph glyph-name="afii10034" unicode="&#x420;" horiz-adv-x="583" 
d="M558 458q0 -117 -73.5 -181t-188.5 -64h-82v-213h-144v700h232q118 0 187 -64.5t69 -177.5zM412 455q0 56 -30 85t-84 29h-84v-226h85q52 0 82.5 30.5t30.5 81.5z" />
    <glyph glyph-name="afii10035" unicode="&#x421;" horiz-adv-x="617" 
d="M583 84q-47 -47 -100.5 -70.5t-128.5 -23.5q-135 0 -222.5 98t-87.5 257v9q0 159 89 257.5t228 98.5q129 0 217 -80l-68 -117q-73 62 -146 62q-75 0 -122.5 -59t-47.5 -160v-10q0 -103 47 -162t124 -59q75 0 149 64z" />
    <glyph glyph-name="afii10036" unicode="&#x422;" horiz-adv-x="551" 
d="M522 566h-174v-566h-145v566h-175v134h494v-134z" />
    <glyph glyph-name="afii10037" unicode="&#x423;" horiz-adv-x="620" 
d="M167 -6q-67 0 -114 31l45 105q36 -15 61 -15q51 0 84 65l-233 520h158l151 -349l138 349h153l-223 -529q-40 -96 -88.5 -136.5t-131.5 -40.5z" />
    <glyph glyph-name="afii10038" unicode="&#x424;" horiz-adv-x="825" 
d="M340 -22v77q-139 0 -223 83t-84 213q0 140 84.5 221.5t222.5 81.5v67h144v-67q138 0 222.5 -81.5t84.5 -221.5q0 -130 -84 -213t-223 -83v-77h-144zM340 185v339q-73 0 -116 -44t-43 -125q0 -79 43.5 -124.5t115.5 -45.5zM484 185q72 0 115.5 45.5t43.5 124.5
q0 81 -43 125t-116 44v-339z" />
    <glyph glyph-name="afii10039" unicode="&#x425;" horiz-adv-x="630" 
d="M606 0h-165l-128 232l-129 -232h-160l205 357l-197 343h165l119 -219l121 219h160l-196 -343z" />
    <glyph glyph-name="afii10040" unicode="&#x426;" horiz-adv-x="672" 
d="M69 0v700h145v-568h225v568h144v-568h70l-18 -263h-119v131h-447z" />
    <glyph glyph-name="afii10041" unicode="&#x427;" horiz-adv-x="623" 
d="M409 0v259q-88 -45 -155 -45q-94 0 -149 54.5t-55 170.5v261h144v-221q0 -129 95 -129q74 0 120 37v313h144v-700h-144z" />
    <glyph glyph-name="afii10042" unicode="&#x428;" horiz-adv-x="975" 
d="M905 700v-700h-835v700h144v-568h201v568h144v-568h202v568h144z" />
    <glyph glyph-name="afii10043" unicode="&#x429;" horiz-adv-x="994" 
d="M838 -131v131h-768v700h144v-568h201v568h144v-568h202v568h144v-568h71l-18 -263h-120z" />
    <glyph glyph-name="afii10044" unicode="&#x42a;" horiz-adv-x="683" 
d="M163 0v568h-139v132h282v-233h102q114 0 180 -62t66 -170q0 -112 -71 -173.5t-181 -61.5h-239zM306 130h101q48 0 75.5 27.5t27.5 74.5q0 51 -27.5 77.5t-76.5 26.5h-100v-206z" />
    <glyph glyph-name="afii10045" unicode="&#x42b;" horiz-adv-x="840" 
d="M69 0v700h144v-233h102q114 0 180 -62t66 -170q0 -112 -71 -173.5t-181 -61.5h-240zM213 130h101q48 0 75.5 27.5t27.5 74.5q0 51 -27.5 77.5t-76.5 26.5h-100v-206zM626 0v700h144v-700h-144z" />
    <glyph glyph-name="afii10046" unicode="&#x42c;" horiz-adv-x="589" 
d="M309 0h-240v700h144v-233h102q114 0 180 -62t66 -170q0 -112 -71 -173.5t-181 -61.5zM213 130h101q48 0 75.5 27.5t27.5 74.5q0 51 -27.5 77.5t-76.5 26.5h-100v-206z" />
    <glyph glyph-name="afii10047" unicode="&#x42d;" horiz-adv-x="617" 
d="M261 -11q-143 0 -231 88l67 107q74 -60 146 -60q68 0 115 43.5t61 122.5h-236v124h235q-15 76 -60 120.5t-107 44.5q-79 0 -148 -57l-59 109q46 39 97 59t126 20q134 0 219.5 -100.5t85.5 -254.5v-11q0 -159 -88 -257t-223 -98z" />
    <glyph glyph-name="afii10048" unicode="&#x42e;" horiz-adv-x="925" 
d="M586 -11q-118 0 -196.5 80.5t-94.5 216.5h-81v-286h-145v700h145v-283h82q17 133 96 213.5t195 80.5q130 0 212 -99t82 -257v-11q0 -157 -82 -256t-213 -99zM587 120q63 0 104 60.5t41 169.5q0 107 -42 168t-104 61q-63 0 -104.5 -60.5t-41.5 -168.5q0 -109 41.5 -169.5
t105.5 -60.5z" />
    <glyph glyph-name="afii10049" unicode="&#x42f;" horiz-adv-x="625" 
d="M555 700v-700h-145v230h-91l-129 -230h-165l148 260q-130 56 -130 211q0 103 61 162t168 64q66 3 133 3h150zM299 358h111v210h-27q-35 0 -52.5 -0.5t-45 -3.5t-41 -9.5t-28.5 -18t-21 -30.5t-6 -45q0 -49 29.5 -76t80.5 -27z" />
    <glyph glyph-name="afii10065" unicode="&#x430;" horiz-adv-x="519" 
d="M467 0h-139v57q-52 -66 -139 -66q-69 0 -114.5 43t-45.5 118v7q0 85 50.5 128t136.5 43q60 0 113 -21v15q0 94 -103 94q-59 0 -130 -28l-27 115q84 37 180 37q109 0 163.5 -56t54.5 -161v-325zM330 175v46q-34 17 -79 17q-40 0 -62.5 -18.5t-22.5 -53.5v-7q0 -32 19 -49
t50 -17q42 0 68.5 22.5t26.5 59.5z" />
    <glyph glyph-name="afii10066" unicode="&#x431;" horiz-adv-x="571" 
d="M314 519q91 0 156.5 -73t65.5 -186v-4q0 -118 -69.5 -192.5t-177.5 -74.5q-117 0 -181 78t-64 223v14q0 117 15.5 192.5t63.5 123.5q27 27 74.5 45t88 25.5t107 17.5t97.5 16l19 -117q-79 -16 -143 -26q-124 -18 -169 -50t-49 -94q17 30 59.5 56t106.5 26zM395 252v12
q0 62 -29 101t-77 39q-49 0 -77 -38t-28 -100v-12q0 -61 29.5 -100.5t77.5 -39.5t76 38t28 100z" />
    <glyph glyph-name="afii10067" unicode="&#x432;" horiz-adv-x="530" 
d="M57 536h238q80 0 128 -36.5t48 -103.5q0 -79 -72 -117q46 -19 70.5 -49.5t24.5 -81.5q0 -71 -52.5 -109.5t-140.5 -38.5h-244v536zM339 374q0 54 -67 54h-73v-109h69q71 0 71 55zM351 167q0 58 -75 58h-77v-113h80q72 0 72 55z" />
    <glyph glyph-name="afii10068" unicode="&#x433;" horiz-adv-x="415" 
d="M57 0v536h344v-122h-202v-414h-142z" />
    <glyph glyph-name="afii10069" unicode="&#x434;" horiz-adv-x="570" 
d="M353 416h-115q0 -194 -39 -293h154v293zM421 0h-289l-12 -113h-118v236h53q49 110 49 357v56h391v-413h61q-2 -44 -8.5 -125t-8.5 -111h-118v113z" />
    <glyph glyph-name="afii10070" unicode="&#x435;" horiz-adv-x="534" 
d="M498 261q0 -27 -2 -47h-320q19 -107 116 -107q63 0 119 50l64 -86q-74 -82 -188 -82q-109 0 -180.5 75t-71.5 197v10q0 119 66.5 196.5t168.5 77.5q110 0 169 -79.5t59 -204.5zM361 309q-5 56 -28.5 88t-62.5 32t-63.5 -31t-31.5 -89h186z" />
    <glyph glyph-name="afii10072" unicode="&#x436;" horiz-adv-x="783" 
d="M462 0h-142v132l-45 88l-118 -220h-155l172 303l-168 233h160l154 -228v228h142v-228l154 228h160l-168 -233l172 -303h-155l-118 220l-45 -88v-132z" />
    <glyph glyph-name="afii10073" unicode="&#x437;" horiz-adv-x="452" 
d="M219 -11q-125 0 -203 64l49 101q65 -47 136 -47q32 0 53.5 16t21.5 41q0 26 -24 43t-66 17h-45v92h44q36 0 58.5 17.5t22.5 42.5q0 23 -20.5 36t-52.5 13q-63 0 -117 -45q-8 17 -46 97q78 66 193 66q78 0 130 -39.5t52 -103.5q0 -85 -80 -121q90 -34 90 -127
q0 -72 -55.5 -117.5t-140.5 -45.5z" />
    <glyph glyph-name="afii10074" unicode="&#x438;" horiz-adv-x="561" 
d="M503 536v-536h-137v305l-174 -305h-135v536h138v-302l173 302h135z" />
    <glyph glyph-name="afii10075" unicode="&#x439;" horiz-adv-x="561" 
d="M503 536v-536h-137v305l-174 -305h-135v536h138v-302l173 302h135zM281 585q-62 0 -102 36.5t-49 103.5l81 14q15 -62 70 -62q53 0 70 62l80 -14q-9 -67 -48.5 -103.5t-101.5 -36.5z" />
    <glyph glyph-name="afii10076" unicode="&#x43a;" horiz-adv-x="535" 
d="M57 0v536h142v-219l157 219h160l-166 -222l183 -314h-164l-115 204l-55 -70v-134h-142z" />
    <glyph glyph-name="afii10077" unicode="&#x43b;" horiz-adv-x="566" 
d="M45 118q21 0 33 13t23 54.5t15.5 127t4.5 223.5h387v-536h-142v416h-112q0 -166 -18.5 -258t-55 -127.5t-100.5 -35.5q-49 0 -88 13l19 115q8 -5 34 -5z" />
    <glyph glyph-name="afii10078" unicode="&#x43c;" horiz-adv-x="644" 
d="M57 0v536h143l121 -214l123 214h143v-536h-142v319l-125 -212l-124 210v-317h-139z" />
    <glyph glyph-name="afii10079" unicode="&#x43d;" horiz-adv-x="553" 
d="M496 536v-536h-142v208h-155v-208h-142v536h142v-208h155v208h142z" />
    <glyph glyph-name="afii10080" unicode="&#x43e;" horiz-adv-x="578" 
d="M542 262q0 -119 -72 -196t-182 -77q-109 0 -180.5 76.5t-71.5 195.5v11q0 119 72 196t182 77q109 0 180.5 -76.5t71.5 -195.5v-11zM401 260v12q0 66 -31 108t-82 42q-52 0 -82 -41t-30 -107v-12q0 -66 31.5 -108t82.5 -42t81 41t30 107z" />
    <glyph glyph-name="afii10081" unicode="&#x43f;" horiz-adv-x="551" 
d="M493 536v-536h-142v416h-152v-416h-142v536h436z" />
    <glyph glyph-name="afii10082" unicode="&#x440;" horiz-adv-x="587" 
d="M549 260q0 -130 -59 -200t-146 -70q-83 0 -145 78v-219h-142v687h142v-74q58 84 145 84q86 0 145.5 -70t59.5 -200v-16zM408 262v12q0 67 -30.5 107.5t-75.5 40.5t-74.5 -40.5t-29.5 -107.5v-12q0 -67 29.5 -107.5t74.5 -40.5q46 0 76 40.5t30 107.5z" />
    <glyph glyph-name="afii10083" unicode="&#x441;" horiz-adv-x="485" 
d="M458 64q-36 -37 -76.5 -56t-100.5 -19q-107 0 -176 76.5t-69 195.5v11q0 119 70 196t177 77t172 -67l-64 -106q-49 47 -104 47q-48 0 -79 -40t-31 -105v-12q0 -67 31.5 -107t83.5 -40t104 47z" />
    <glyph glyph-name="afii10084" unicode="&#x442;" horiz-adv-x="440" 
d="M148 0v414h-135v122h413v-122h-134v-414h-144z" />
    <glyph glyph-name="afii10085" unicode="&#x443;" horiz-adv-x="529" 
d="M512 536l-180 -541q-27 -80 -64 -114.5t-102 -34.5q-67 0 -122 31l42 106q33 -19 62 -19q34 0 50 35l-181 537h148l101 -358l100 358h146z" />
    <glyph glyph-name="afii10086" unicode="&#x444;" horiz-adv-x="799" 
d="M471 393v-252q25 -27 55 -27q45 0 69 38.5t24 108.5v11q0 69 -24 108.5t-69 39.5q-28 0 -55 -27zM328 141v252q-27 27 -55 27q-45 0 -69 -39.5t-24 -108.5v-11q0 -70 23.5 -108.5t69.5 -38.5q30 0 55 27zM471 -151h-143v189q-36 -45 -104 -45q-84 0 -135 71t-51 210
q0 130 51 199.5t136 69.5q62 0 103 -51v208h143v-208q39 51 103 51q85 0 136 -69.5t51 -199.5v-14q0 -130 -51 -198.5t-135 -68.5q-70 0 -104 45v-189z" />
    <glyph glyph-name="afii10087" unicode="&#x445;" horiz-adv-x="516" 
d="M497 0h-151l-90 168l-90 -168h-148l161 273l-155 263h150l85 -157l85 157h147l-156 -261z" />
    <glyph glyph-name="afii10088" unicode="&#x446;" horiz-adv-x="567" 
d="M419 -113v113h-362v536h142v-413h152v413h142v-413h61l-16 -236h-119z" />
    <glyph glyph-name="afii10089" unicode="&#x447;" horiz-adv-x="533" 
d="M334 0v187q-58 -30 -129 -30q-72 0 -116.5 42t-44.5 125v212h143v-170q0 -86 65 -86q42 0 82 21v235h142v-536h-142z" />
    <glyph glyph-name="afii10090" unicode="&#x448;" horiz-adv-x="824" 
d="M767 536v-536h-710v536h142v-413h142v413h142v-413h142v413h142z" />
    <glyph glyph-name="afii10091" unicode="&#x449;" horiz-adv-x="841" 
d="M693 -113v113h-636v536h142v-413h142v413h142v-413h141v413h143v-413h61l-16 -236h-119z" />
    <glyph glyph-name="afii10092" unicode="&#x44a;" horiz-adv-x="569" 
d="M128 0v414h-115v122h257v-178h93q87 0 138 -47.5t51 -130.5q0 -86 -54.5 -133t-138.5 -47h-231zM270 111h69q33 0 51.5 19t18.5 51q0 71 -71 71h-68v-141z" />
    <glyph glyph-name="afii10093" unicode="&#x44b;" horiz-adv-x="740" 
d="M57 0v536h142v-178h93q87 0 138 -47.5t51 -130.5q0 -86 -54.5 -133t-138.5 -47h-231zM199 111h69q33 0 51.5 19t18.5 51q0 71 -71 71h-68v-141zM541 0v536h142v-536h-142z" />
    <glyph glyph-name="afii10094" unicode="&#x44c;" horiz-adv-x="498" 
d="M57 0v536h142v-178h93q87 0 138 -47.5t51 -130.5q0 -86 -54.5 -133t-138.5 -47h-231zM199 111h69q33 0 51.5 19t18.5 51q0 71 -71 71h-68v-141z" />
    <glyph glyph-name="afii10095" unicode="&#x44d;" horiz-adv-x="488" 
d="M206 -11q-113 0 -184 71l62 98q49 -43 101 -43q47 0 79 26.5t44 74.5h-157v103h157q-24 102 -117 102q-56 0 -103 -40l-55 98q73 65 166 65q110 0 181 -76t71 -196v-9q0 -120 -69 -197t-176 -77z" />
    <glyph glyph-name="afii10096" unicode="&#x44e;" horiz-adv-x="779" 
d="M500 -11q-93 0 -158.5 59.5t-79.5 158.5h-63v-207h-142v536h142v-208h63q16 97 81.5 157t157.5 60q106 0 174 -76.5t68 -197.5v-9q0 -120 -68 -196.5t-175 -76.5zM501 111q48 0 75 42.5t27 113.5q0 70 -28.5 112.5t-74.5 42.5q-48 0 -75 -42t-27 -113q0 -70 28.5 -113
t74.5 -43z" />
    <glyph glyph-name="afii10097" unicode="&#x44f;" horiz-adv-x="534" 
d="M14 0l119 202q-97 43 -97 156q0 93 57 135.5t152 42.5h232v-536h-142v175h-63l-97 -175h-161zM253 280h82v144h-25q-29 0 -43 -0.5t-34.5 -4t-30 -11t-17 -22t-7.5 -35.5q0 -34 20 -52.5t55 -18.5z" />
    <glyph glyph-name="afii10071" unicode="&#x451;" horiz-adv-x="534" 
d="M498 261q0 -27 -2 -47h-320q19 -107 116 -107q63 0 119 50l64 -86q-74 -82 -188 -82q-109 0 -180.5 75t-71.5 197v10q0 119 66.5 196.5t168.5 77.5q110 0 169 -79.5t59 -204.5zM361 309q-5 56 -28.5 88t-62.5 32t-63.5 -31t-31.5 -89h186zM440 596h-134v125h134v-125z
M240 596h-134v125h134v-125z" />
    <glyph glyph-name="afii10099" unicode="&#x452;" horiz-adv-x="550" 
d="M338 -5q-28 0 -60 5v112q9 -2 25 -2q51 0 51 56v127q0 46 -20 70.5t-56 24.5q-37 0 -58 -24.5t-21 -70.5v-293h-142v550h-54v107h54v65h142v-65h152v-107h-152v-116q59 82 138 82q76 0 117.5 -48.5t41.5 -132.5v-181q0 -159 -158 -159z" />
    <glyph glyph-name="afii10100" unicode="&#x453;" horiz-adv-x="415" 
d="M57 0v536h344v-122h-202v-414h-142zM381 715l-124 -122h-102l108 176z" />
    <glyph glyph-name="afii10101" unicode="&#x454;" horiz-adv-x="488" 
d="M282 -11q-107 0 -176 77t-69 197v9q0 120 71 196t181 76q93 0 166 -65l-55 -98q-47 40 -103 40q-93 0 -117 -102h157v-103h-157q12 -48 44 -74.5t79 -26.5q52 0 101 43l62 -98q-71 -71 -184 -71z" />
    <glyph glyph-name="afii10102" unicode="&#x455;" horiz-adv-x="437" 
d="M405 156q0 -80 -52.5 -123t-135.5 -43q-107 0 -194 64l46 105q79 -55 148 -55q58 0 58 40v2q0 6 -2 11.5t-7 10.5t-10.5 9t-15 9t-17 9t-21.5 10t-23 11q-65 29 -102 65t-37 99v2q0 75 51.5 118.5t131.5 43.5q90 0 167 -48l-41 -108q-73 42 -126 42q-25 0 -38.5 -10
t-13.5 -26v-2q0 -6 2 -11t7 -10t10 -9t15 -9.5t17.5 -9.5t21 -11t22.5 -12q34 -17 53.5 -29t42 -32t33 -44.5t10.5 -56.5v-2z" />
    <glyph glyph-name="afii10103" unicode="&#x456;" horiz-adv-x="267" 
d="M208 593h-148v129h148v-129zM204 0h-142v536h142v-536z" />
    <glyph glyph-name="afii10104" unicode="&#x457;" horiz-adv-x="267" 
d="M301 596h-134v125h134v-125zM101 596h-134v125h134v-125zM204 0h-142v536h142v-536z" />
    <glyph glyph-name="afii10105" unicode="&#x458;" horiz-adv-x="268" 
d="M208 593h-148v129h148v-129zM205 5q0 -159 -158 -159q-28 0 -60 5v112q9 -2 25 -2q51 0 51 56v519h142v-531z" />
    <glyph glyph-name="afii10106" unicode="&#x459;" horiz-adv-x="807" 
d="M366 0v416h-112q0 -166 -18.5 -258t-55 -127.5t-100.5 -35.5q-49 0 -88 13l19 115q8 -5 34 -5q21 0 33 13t23 54.5t15.5 127t4.5 223.5h387v-178h93q87 0 138 -47.5t51 -130.5q0 -86 -54.5 -133t-138.5 -47h-231zM508 111h69q33 0 51.5 19t18.5 51q0 71 -71 71h-68v-141z
" />
    <glyph glyph-name="afii10107" unicode="&#x45a;" horiz-adv-x="795" 
d="M354 0v238h-155v-238h-142v536h142v-178h155v178h142v-178h93q87 0 138 -47.5t51 -130.5q0 -86 -54.5 -133t-138.5 -47h-231zM496 111h69q33 0 51.5 19t18.5 51q0 71 -71 71h-68v-141z" />
    <glyph glyph-name="afii10108" unicode="&#x45b;" horiz-adv-x="550" 
d="M3 657h54v65h142v-65h152v-107h-152v-116q59 82 138 82q76 0 117.5 -48.5t41.5 -132.5v-335h-142v293q0 46 -20 70.5t-56 24.5q-37 0 -58 -24.5t-21 -70.5v-293h-142v550h-54v107z" />
    <glyph glyph-name="afii10109" unicode="&#x45c;" horiz-adv-x="535" 
d="M57 0v536h142v-219l157 219h160l-166 -222l183 -314h-164l-115 204l-55 -70v-134h-142zM430 715l-124 -122h-102l108 176z" />
    <glyph glyph-name="afii10110" unicode="&#x45e;" horiz-adv-x="529" 
d="M512 536l-180 -541q-27 -80 -64 -114.5t-102 -34.5q-67 0 -122 31l42 106q33 -19 62 -19q34 0 50 35l-181 537h148l101 -358l100 358h146zM266 585q-62 0 -102 36.5t-49 103.5l81 14q15 -62 70 -62q53 0 70 62l80 -14q-9 -67 -48.5 -103.5t-101.5 -36.5z" />
    <glyph glyph-name="afii10193" unicode="&#x45f;" horiz-adv-x="551" 
d="M342 -113h-132v113h-153v536h142v-413h152v413h142v-536h-151v-113z" />
    <glyph glyph-name="afii10050" unicode="&#x490;" horiz-adv-x="509" 
d="M70 700h280v131h119l18 -263h-273v-568h-144v700z" />
    <glyph glyph-name="afii10098" unicode="&#x491;" horiz-adv-x="415" 
d="M401 414h-202v-414h-142v536h209v114h119z" />
    <glyph glyph-name="endash" unicode="&#x2013;" horiz-adv-x="506" 
d="M459 243h-413v134h413v-134z" />
    <glyph glyph-name="emdash" unicode="&#x2014;" horiz-adv-x="831" 
d="M784 243h-738v134h738v-134z" />
    <glyph glyph-name="quoteleft" unicode="&#x2018;" horiz-adv-x="267" 
d="M238 646q-51 -7 -74.5 -35t-19.5 -69h62v-153h-154v128q0 179 174 187z" />
    <glyph glyph-name="quoteright" unicode="&#x2019;" horiz-adv-x="267" 
d="M216 572q0 -179 -175 -187l-12 58q102 15 94 104h-62v153h155v-128z" />
    <glyph glyph-name="quotesinglbase" unicode="&#x201a;" horiz-adv-x="275" 
d="M217 25q0 -178 -179 -187l-11 59q53 7 77 34.5t20 68.5h-62v153h155v-128z" />
    <glyph glyph-name="quotedblleft" unicode="&#x201c;" horiz-adv-x="502" 
d="M473 646q-51 -7 -74.5 -35t-19.5 -69h62v-153h-155v128q0 179 175 187zM238 646q-51 -7 -74.5 -35t-19.5 -69h62v-153h-154v128q0 179 174 187z" />
    <glyph glyph-name="quotedblright" unicode="&#x201d;" horiz-adv-x="502" 
d="M451 572q0 -179 -175 -187l-12 58q102 15 94 104h-62v153h155v-128zM216 572q0 -179 -175 -187l-12 58q102 15 94 104h-62v153h155v-128z" />
    <glyph glyph-name="quotedblbase" unicode="&#x201e;" horiz-adv-x="513" 
d="M455 25q0 -178 -179 -187l-12 59q106 14 98 103h-62v153h155v-128zM217 25q0 -178 -179 -187l-11 59q53 7 77 34.5t20 68.5h-62v153h155v-128z" />
    <glyph glyph-name="dagger" unicode="&#x2020;" horiz-adv-x="358" 
d="M209 508l11 -270h-83l11 270l-106 -10v82l105 -11l-14 131h91l-14 -131l105 11v-82z" />
    <glyph glyph-name="daggerdbl" unicode="&#x2021;" horiz-adv-x="377" 
d="M325 119l-105 10l14 -129h-91l14 129l-105 -10v82l105 -11l-11 160l11 158l-105 -10v82l105 -11l-14 131h91l-14 -131l105 11v-82l-106 10l11 -158l-11 -160l106 11v-82z" />
    <glyph glyph-name="bullet" unicode="&#x2022;" horiz-adv-x="455" 
d="M227 203q-58 0 -97.5 41.5t-39.5 105.5v6q0 63 39.5 104.5t97.5 41.5t98 -41.5t40 -104.5v-6q0 -64 -40 -105.5t-98 -41.5z" />
    <glyph glyph-name="ellipsis" unicode="&#x2026;" horiz-adv-x="808" 
d="M750 0h-152v151h152v-151zM480 0h-152v151h152v-151zM210 0h-152v151h152v-151z" />
    <glyph glyph-name="perthousand" unicode="&#x2030;" horiz-adv-x="1116" 
d="M344 530v-7q0 -77 -43 -128t-111 -51q-67 0 -109 50.5t-42 127.5v6q0 77 42.5 128t110.5 51q67 0 109.5 -50t42.5 -127zM562 700h105l-456 -700h-105zM1077 178v-7q0 -77 -43 -127.5t-111 -50.5q-67 0 -109 50t-42 127v6q0 77 42.5 128t110.5 51q67 0 109.5 -50
t42.5 -127zM734 178v-7q0 -77 -43 -127.5t-111 -50.5q-67 0 -109.5 50t-42.5 127v6q0 77 42.5 128t110.5 51q67 0 110 -50t43 -127zM245 522v6q0 41 -15 66t-40 25t-39.5 -24.5t-14.5 -65.5v-6q0 -41 15.5 -66t40.5 -25t39 24.5t14 65.5zM979 170v6q0 41 -15.5 66t-40.5 25
t-39 -24.5t-14 -65.5v-6q0 -41 15 -66t40 -25t39.5 24.5t14.5 65.5zM635 170v6q0 41 -15 66t-40 25t-39.5 -24.5t-14.5 -65.5v-6q0 -41 15 -66t40 -25t39.5 24.5t14.5 65.5z" />
    <glyph glyph-name="guilsinglleft" unicode="&#x2039;" horiz-adv-x="342" 
d="M303 97l-110 -57l-157 224v8l157 224l109 -55l-123 -172z" />
    <glyph glyph-name="guilsinglright" unicode="&#x203a;" horiz-adv-x="342" 
d="M307 264l-158 -224l-110 56l125 172l-124 171l109 57l158 -224v-8z" />
    <glyph glyph-name="fraction" unicode="&#x2044;" horiz-adv-x="452" 
d="M365 759h126l-425 -856h-126z" />
    <glyph glyph-name="Euro" unicode="&#x20ac;" horiz-adv-x="617" 
d="M584 91q-82 -102 -199 -102q-101 0 -169.5 60.5t-94.5 170.5h-82v97h68v70h-68v97h84q27 107 96 167t167 60q68 0 113.5 -24t82.5 -70l-81 -99q-53 62 -114 62q-82 0 -114 -96h159v-97h-178q-1 -10 -1 -32v-9q0 -19 1 -29h178v-97h-161q31 -100 121 -100q33 0 58.5 15
t56.5 49z" />
    <glyph glyph-name="afii61352" unicode="&#x2116;" horiz-adv-x="1022" 
d="M612 0h-125l-276 423v-423h-141v700h133l266 -408v408h143v-700zM982 403q0 -77 -44.5 -126t-112.5 -49q-67 0 -111 48.5t-44 125.5v7q0 75 44.5 124t111.5 49q68 0 112 -48.5t44 -124.5v-6zM974 97h-286v84h286v-84zM888 403v6q0 38 -17.5 63t-44.5 25q-29 0 -45 -24
t-16 -63v-7q0 -39 17 -64t44 -25q29 0 45.5 24t16.5 65z" />
    <glyph glyph-name="published" unicode="&#x2117;" horiz-adv-x="737" 
d="M693 355v-10q0 -151 -94.5 -253.5t-231.5 -102.5t-230 102t-93 253v10q0 151 94 254t231 103t230.5 -102.5t93.5 -253.5zM652 345v10q0 135 -80.5 226t-202.5 91q-123 0 -204 -91.5t-81 -226.5v-11q0 -135 80.5 -225.5t202.5 -90.5q123 0 204 91.5t81 226.5zM522 416v-1
q0 -63 -40.5 -98t-103.5 -36h-45v-117h-80v385h128q65 0 103 -35.5t38 -97.5zM441 414q0 30 -16.5 46.5t-45.5 16.5h-46v-125h47q28 0 44.5 17t16.5 45z" />
    <glyph glyph-name="trademark" unicode="&#x2122;" horiz-adv-x="612" 
d="M510 592l-72 -130h-4l-71 130v-203h-66v311h72l68 -123l67 123h71v-311h-65v203zM167 638v-249h-69v249h-76v62h220v-62h-75z" />
    <glyph glyph-name="partialdiff" unicode="&#x2202;" 
d="M0 0v700h500v-700h-500zM81 49h339l-170 255zM49 96l171 254l-171 254v-508zM450 96v508l-171 -254zM250 395l170 255h-339z" />
    <glyph glyph-name="Delta" unicode="&#x2206;" horiz-adv-x="638" 
d="M17 0l236 700h133l235 -700h-604zM209 130h215l-107 348z" />
    <glyph glyph-name="product" unicode="&#x220f;" 
d="M0 0v700h500v-700h-500zM81 49h339l-170 255zM49 96l171 254l-171 254v-508zM450 96v508l-171 -254zM250 395l170 255h-339z" />
    <glyph glyph-name="summation" unicode="&#x2211;" 
d="M0 0v700h500v-700h-500zM81 49h339l-170 255zM49 96l171 254l-171 254v-508zM450 96v508l-171 -254zM250 395l170 255h-339z" />
    <glyph glyph-name="minus" unicode="&#x2212;" 
d="M0 0v700h500v-700h-500zM81 49h339l-170 255zM49 96l171 254l-171 254v-508zM450 96v508l-171 -254zM250 395l170 255h-339z" />
    <glyph glyph-name="radical" unicode="&#x221a;" horiz-adv-x="570" 
d="M76 231h-87v98h148l93 -218l258 687h112l-359 -926z" />
    <glyph glyph-name="infinity" unicode="&#x221e;" 
d="M0 0v700h500v-700h-500zM81 49h339l-170 255zM49 96l171 254l-171 254v-508zM450 96v508l-171 -254zM250 395l170 255h-339z" />
    <glyph glyph-name="integral" unicode="&#x222b;" 
d="M0 0v700h500v-700h-500zM81 49h339l-170 255zM49 96l171 254l-171 254v-508zM450 96v508l-171 -254zM250 395l170 255h-339z" />
    <glyph glyph-name="approxequal" unicode="&#x2248;" horiz-adv-x="555" 
d="M121 384l-69 21q32 155 132 155q27 0 97 -19.5t83 -19.5q51 0 68 47l70 -21q-32 -155 -132 -155q-27 0 -97.5 19.5t-83.5 19.5q-49 0 -68 -47zM121 128l-69 21q32 155 132 155q27 0 97 -19.5t83 -19.5q51 0 68 47l70 -21q-32 -155 -132 -155q-27 0 -97.5 19.5t-83.5 19.5
q-49 0 -68 -47z" />
    <glyph glyph-name="notequal" unicode="&#x2260;" horiz-adv-x="555" 
d="M46 50l67 110h-59v133h141l72 118h-213v133h295l66 108h89l-66 -108h63v-133h-145l-72 -118h217v-133h-299l-67 -110h-89z" />
    <glyph glyph-name="lessequal" unicode="&#x2264;" 
d="M0 0v700h500v-700h-500zM81 49h339l-170 255zM49 96l171 254l-171 254v-508zM450 96v508l-171 -254zM250 395l170 255h-339z" />
    <glyph glyph-name="greaterequal" unicode="&#x2265;" 
d="M0 0v700h500v-700h-500zM81 49h339l-170 255zM49 96l171 254l-171 254v-508zM450 96v508l-171 -254zM250 395l170 255h-339z" />
    <glyph glyph-name="lozenge" unicode="&#x25ca;" horiz-adv-x="555" 
d="M517 356l-186 -391h-128l-183 391l184 391h127zM373 356l-105 249l-104 -249l104 -250z" />
    <glyph glyph-name="cyrbreve" unicode="&#xf6d1;" 
d="M249 585q-62 0 -102 36.5t-49 103.5l81 14q15 -62 70 -62q53 0 70 62l80 -14q-9 -67 -48.5 -103.5t-101.5 -36.5z" />
    <glyph glyph-name="cyrBreve" unicode="&#xf6d4;" 
d="M248 586q-64 0 -104.5 36.5t-49.5 105.5l82 15q15 -64 72 -64q55 0 71 64l81 -15q-9 -69 -49 -105.5t-103 -36.5z" />
    <glyph glyph-name="apple" unicode="&#xf8ff;" 
d="M0 0v700h500v-700h-500zM81 49h339l-170 255zM49 96l171 254l-171 254v-508zM450 96v508l-171 -254zM250 395l170 255h-339z" />
    <glyph glyph-name="ff" unicode="&#xfb00;" horiz-adv-x="672" 
d="M324 416h-103v-416h-141v416h-54v117h54v35q0 160 156 160q50 0 89 -12v-117q-25 9 -52 9q-53 0 -53 -55v-20h104v-117zM660 416h-103v-416h-141v416h-54v117h54v35q0 160 156 160q50 0 89 -12v-117q-26 9 -52 9q-53 0 -53 -55v-20h104v-117z" />
    </font>
</defs>
</svg>
