<?xml version="1.0" standalone="no"?>
<!DOCTYPE svg PUBLIC "-//W3C//DTD SVG 1.1//EN" "http://www.w3.org/Graphics/SVG/1.1/DTD/svg11.dtd" >
<svg xmlns="http://www.w3.org/2000/svg" xmlns:xlink="http://www.w3.org/1999/xlink" version="1.1">
<metadata>
Created by FontForge 20150102 at Wed Jan 14 12:28:41 2015
 By uniteet7
Copyright (c) 2005 The Hoefler Type Foundry, Inc., dba Hoefler &#38; Frere-Jones. All Rights Reserved.
</metadata>
<defs>
<font id="GothaProNarMed" horiz-adv-x="500" >
  <font-face 
    font-family="GothaProNarMed"
    font-weight="500"
    font-stretch="normal"
    units-per-em="1000"
    panose-1="2 0 6 6 3 0 0 2 0 4"
    ascent="800"
    descent="-200"
    x-height="530"
    cap-height="700"
    bbox="-54 -159.286 1059 915"
    underline-thickness="20"
    underline-position="-113"
    unicode-range="U+0020-FB04"
  />
<missing-glyph 
d="M0 0v700h500v-700h-500zM81 49h339l-170 255zM49 96l171 254l-171 254v-508zM450 96v508l-171 -254zM250 395l170 255h-339z" />
    <glyph glyph-name="fi" unicode="fi" horiz-adv-x="587" 
d="M519 607h-120v111h120v-111zM319 433h-117v-433h-113v433h-58v95h58v40q0 79 39 119t111 40q48 0 81 -11v-95q-27 9 -55 9q-64 0 -64 -73v-30h118v-94zM516 0h-114v530h114v-530z" />
    <glyph glyph-name="fl" unicode="fl" horiz-adv-x="587" 
d="M319 433h-117v-433h-113v433h-58v95h58v40q0 79 39 119t111 40q48 0 81 -11v-95q-27 9 -55 9q-64 0 -64 -73v-30h118v-94zM516 0h-114v722h114v-722z" />
    <glyph glyph-name="ffi" unicode="ffi" horiz-adv-x="916" 
d="M848 607h-120v111h120v-111zM531 526h118v-93h-117v-433h-112v433h-59v94h59v41q0 159 150 159q47 0 80 -11v-96q-28 10 -55 10q-64 0 -64 -73v-31zM201 526h117v-93h-116v-433h-113v433h-59v94h59v41q0 79 39 119t111 40q47 0 80 -11v-96q-28 10 -54 10q-64 0 -64 -73
v-31zM845 0h-113v530h113v-530z" />
    <glyph glyph-name="ffl" unicode="ffl" horiz-adv-x="916" 
d="M531 526h118v-93h-117v-433h-112v433h-59v94h59v41q0 159 150 159q47 0 80 -11v-96q-28 10 -55 10q-64 0 -64 -73v-31zM201 526h117v-93h-116v-433h-113v433h-59v94h59v41q0 79 39 119t111 40q47 0 80 -11v-96q-28 10 -54 10q-64 0 -64 -73v-31zM845 0h-113v722h113v-722
z" />
    <glyph glyph-name=".notdef" 
d="M0 0v700h500v-700h-500zM81 49h339l-170 255zM49 96l171 254l-171 254v-508zM450 96v508l-171 -254zM250 395l170 255h-339z" />
    <glyph glyph-name=".null" horiz-adv-x="0" 
 />
    <glyph glyph-name="nonmarkingreturn" horiz-adv-x="333" 
 />
    <glyph glyph-name="space" unicode=" " horiz-adv-x="257" 
 />
    <glyph glyph-name="exclam" unicode="!" horiz-adv-x="277" 
d="M206 665l-37 -448h-61l-36 448v35h134v-35zM202 0h-127v132h127v-132z" />
    <glyph glyph-name="quotedbl" unicode="&#x22;" horiz-adv-x="435" 
d="M395 694l-87 -292h-54l15 298h126v-6zM198 694l-87 -292h-55l17 298h125v-6z" />
    <glyph glyph-name="numbersign" unicode="#" horiz-adv-x="605" 
d="M571 442h-94l-25 -180h89v-98h-104l-23 -164h-94l23 164h-137l-24 -164h-94l24 164h-79v98h93l26 180h-88v98h103l23 160h94l-23 -160h138l22 160h94l-23 -160h79v-98zM384 442h-138l-25 -180h137z" />
    <glyph glyph-name="dollar" unicode="$" horiz-adv-x="554" 
d="M322 -100h-80v100q-108 10 -197 78l45 94q84 -64 161 -73v205q-100 39 -145 85.5t-45 124.5v1q0 76 50 126t131 60v61h80v-61q84 -9 160 -62l-40 -96q-69 47 -129 57v-195q110 -46 152 -93t42 -123v-1q0 -76 -51.5 -126.5t-133.5 -61.5v-100zM401 184q0 33 -19 55t-69 43
v-184q88 12 88 85v1zM168 522q0 -33 17.5 -53.5t65.5 -40.5v173q-41 -5 -62 -26t-21 -53z" />
    <glyph glyph-name="percent" unicode="%" horiz-adv-x="760" 
d="M339 525q0 -76 -41.5 -126t-107.5 -50q-65 0 -106.5 49.5t-41.5 124.5v8q0 76 41.5 126t107.5 50q65 0 106.5 -50t41.5 -125v-7zM651 700l-454 -700h-88l454 700h88zM718 169q0 -76 -42 -126t-108 -50q-65 0 -106 49.5t-41 125.5v7q0 76 41.5 126t107.5 50
q65 0 106.5 -49.5t41.5 -124.5v-8zM256 524v6q0 46 -18.5 74.5t-47.5 28.5q-30 0 -47.5 -27.5t-17.5 -73.5v-7q0 -46 18.5 -74t47.5 -28q30 0 47.5 27.5t17.5 73.5zM635 168v7q0 46 -18.5 74t-48.5 28q-29 0 -46.5 -27.5t-17.5 -73.5v-6q0 -46 18.5 -74.5t47.5 -28.5
q30 0 47.5 27.5t17.5 73.5z" />
    <glyph glyph-name="ampersand" unicode="&#x26;" horiz-adv-x="616" 
d="M593 46l-85 -59l-77 89q-84 -86 -190 -86q-90 0 -149.5 54t-59.5 141v3q0 127 138 201q-59 84 -59 152v3q0 69 50 118t132 49q75 0 122 -46t47 -115v-3q0 -118 -139 -185l108 -129q30 52 59 128l88 -38q-35 -96 -81 -167zM360 541v4q0 33 -19.5 53.5t-50.5 20.5
q-33 0 -53.5 -22t-20.5 -55v-4q0 -45 50 -110q94 45 94 113zM369 146l-139 169q-82 -46 -82 -122v-3q0 -45 29.5 -74t75.5 -29q60 0 116 59z" />
    <glyph glyph-name="quotesingle" unicode="'" horiz-adv-x="238" 
d="M199 694l-87 -292h-56l17 298h126v-6z" />
    <glyph glyph-name="parenleft" unicode="(" horiz-adv-x="393" 
d="M352 -63l-37 -77q-258 130 -258 428q0 296 258 427l37 -78q-183 -121 -183 -349q0 -117 45 -202.5t138 -148.5z" />
    <glyph glyph-name="parenright" unicode=")" horiz-adv-x="393" 
d="M336 288q0 -299 -258 -428l-37 77q94 63 138.5 148t44.5 203q0 229 -183 349l37 78q258 -131 258 -427z" />
    <glyph glyph-name="asterisk" unicode="*" horiz-adv-x="390" 
d="M343 498l-35 -60l-93 71l15 -119h-70l15 119l-93 -71l-35 60l107 47l-107 47l35 61l93 -71l-15 119h70l-15 -119l93 71l35 -61l-107 -47z" />
    <glyph glyph-name="plus" unicode="+" horiz-adv-x="577" 
d="M519 300h-177v-182h-108v182h-177v104h177v182h108v-182h177v-104z" />
    <glyph glyph-name="comma" unicode="," horiz-adv-x="249" 
d="M188 21q0 -78 -36.5 -118t-109.5 -48l-11 49q88 17 81 96h-52v132h128v-111z" />
    <glyph glyph-name="hyphen" unicode="-" horiz-adv-x="381" 
d="M329 250h-278v112h278v-112z" />
    <glyph glyph-name="period" unicode="." horiz-adv-x="249" 
d="M188 0h-128v132h128v-132z" />
    <glyph glyph-name="slash" unicode="/" horiz-adv-x="454" 
d="M459 789l-381 -908h-97l381 908h97z" />
    <glyph glyph-name="zero" unicode="0" horiz-adv-x="624" 
d="M574 345q0 -160 -71.5 -258t-191.5 -98q-119 0 -190 97t-71 258v11q0 161 71.5 258.5t190.5 97.5q120 0 191 -97.5t71 -257.5v-11zM456 344v10q0 117 -39.5 185t-105.5 68t-104.5 -66.5t-38.5 -184.5v-10q0 -118 39 -185.5t105 -67.5t105 67t39 184z" />
    <glyph glyph-name="one" unicode="1" horiz-adv-x="350" 
d="M267 0h-115v584l-110 -33l-18 100l161 53h82v-704z" />
    <glyph glyph-name="two" unicode="2" horiz-adv-x="527" 
d="M479 0h-437v92l208 231q60 63 83 101.5t23 79.5q0 45 -28 72t-72 27q-41 0 -73.5 -20t-68.5 -63l-61 78q45 56 94 83t120 27q94 0 150.5 -52.5t56.5 -139.5v-3q0 -66 -31.5 -117t-112.5 -130l-135 -161h284v-105z" />
    <glyph glyph-name="three" unicode="3" horiz-adv-x="530" 
d="M479 210q0 -97 -63 -158.5t-163 -61.5q-133 0 -217 91l60 84q68 -70 155 -70q49 0 81.5 30.5t32.5 79.5v4q0 54 -40 82t-112 30h-39l-15 73l169 202h-263v104h406v-90l-174 -203q81 -13 131.5 -59.5t50.5 -132.5v-5z" />
    <glyph glyph-name="four" unicode="4" horiz-adv-x="590" 
d="M549 151h-87v-151h-110v151h-306l-15 85l329 468h102v-457h87v-96zM352 247v285l-195 -285h195z" />
    <glyph glyph-name="five" unicode="5" horiz-adv-x="536" 
d="M487 225q0 -107 -65 -171t-172 -64q-119 0 -206 80l53 91q74 -64 150 -64q57 0 91.5 34t34.5 91v4q0 56 -34 86.5t-91 30.5q-54 0 -106 -26l-67 45l19 338h364v-105h-268l-10 -166q43 16 93 16q94 0 154 -54.5t60 -161.5v-4z" />
    <glyph glyph-name="six" unicode="6" horiz-adv-x="570" 
d="M522 227q0 -105 -65 -171.5t-164 -66.5q-100 0 -161 61q-41 41 -61 104.5t-20 169.5v6q0 179 69.5 279.5t197.5 100.5q95 0 173 -59l-47 -96q-63 50 -127 50q-68 0 -107.5 -60t-41.5 -162q59 64 145 64q90 0 149.5 -56.5t59.5 -159.5v-4zM409 222v4q0 57 -32.5 90.5
t-85.5 33.5q-55 0 -87 -34q-33 -33 -33 -90v-5q0 -60 33 -95.5t88 -35.5q54 0 85.5 36t31.5 96z" />
    <glyph glyph-name="seven" unicode="7" horiz-adv-x="521" 
d="M477 614l-261 -614h-125l260 595h-297v105h423v-86z" />
    <glyph glyph-name="eight" unicode="8" horiz-adv-x="550" 
d="M508 192q0 -92 -65.5 -147t-168.5 -55q-101 0 -167 55t-66 145v4q0 119 113 171q-93 53 -93 155v4q0 81 61 133.5t152 52.5q92 0 153 -52.5t61 -133.5v-4q0 -103 -93 -155q113 -54 113 -169v-4zM378 510v3q0 45 -28.5 73.5t-75.5 28.5q-46 0 -74.5 -28t-28.5 -73v-3
q0 -47 29 -77.5t74 -30.5q46 0 75 29.5t29 77.5zM395 197v4q0 51 -34 80.5t-87 29.5q-52 0 -86 -29.5t-34 -80.5v-4q0 -50 32 -80.5t88 -30.5t88.5 30.5t32.5 80.5z" />
    <glyph glyph-name="nine" unicode="9" horiz-adv-x="570" 
d="M521 370q0 -180 -71 -280t-197 -100q-98 0 -183 63l47 96q68 -54 136 -54t107.5 59t41.5 158q-56 -66 -143 -66q-92 0 -151 57.5t-59 161.5v5q0 106 64.5 173.5t164.5 67.5t161 -61q82 -82 82 -274v-6zM400 471v5q0 61 -33 97.5t-88 36.5q-54 0 -85 -37t-31 -98v-4
q0 -59 32.5 -93.5t84.5 -34.5q50 0 85 33q35 35 35 95z" />
    <glyph glyph-name="colon" unicode=":" horiz-adv-x="259" 
d="M193 397h-128v133h128v-133zM193 0h-128v132h128v-132z" />
    <glyph glyph-name="semicolon" unicode=";" horiz-adv-x="259" 
d="M193 397h-128v133h128v-133zM193 21q0 -78 -36.5 -118t-109.5 -48l-11 49q88 17 81 96h-52v132h128v-111z" />
    <glyph glyph-name="less" unicode="&#x3c;" horiz-adv-x="556" 
d="M479 83l-421 215v108l421 215v-115l-311 -153l311 -154v-116z" />
    <glyph glyph-name="equal" unicode="=" horiz-adv-x="590" 
d="M514 419h-438v107h438v-107zM514 178h-438v107h438v-107z" />
    <glyph glyph-name="greater" unicode="&#x3e;" horiz-adv-x="556" 
d="M497 298l-420 -215v115l311 153l-311 154v116l420 -215v-108z" />
    <glyph glyph-name="question" unicode="?" horiz-adv-x="474" 
d="M438 509q0 -154 -177 -196l-10 -96h-76l-16 166l4 5q161 15 161 118v2q0 42 -29 68t-78 26q-76 0 -141 -62l-52 82q84 86 200 86q96 0 155 -53.5t59 -141.5v-4zM277 0h-128v132h128v-132z" />
    <glyph glyph-name="at" unicode="@" horiz-adv-x="878" 
d="M830 342q0 -123 -52.5 -198.5t-131.5 -75.5q-100 0 -131 76q-59 -75 -140 -75q-65 0 -108.5 46t-43.5 122q0 109 62 189t142 80q82 0 121 -74l12 62l92 -16l-45 -252q-5 -23 -5 -51q0 -29 17 -46t47 -17q52 0 88 64.5t36 166.5q0 133 -97 232t-242 99
q-156 0 -260.5 -124.5t-104.5 -294.5q-1 -162 99 -267t255 -105q116 0 216 59l19 -30q-110 -66 -236 -66q-169 0 -280.5 116t-111.5 294q0 121 52 225t145.5 167t207.5 63q160 0 269 -109.5t109 -259.5zM527 328q0 43 -23.5 69t-61.5 26t-70 -31.5t-44 -82.5q-9 -41 -9 -66
q0 -44 23.5 -69t61.5 -25t71 34t45 86q7 29 7 59z" />
    <glyph glyph-name="A" unicode="A" horiz-adv-x="674" 
d="M25 0l256 704h112l256 -704h-120l-59 165h-270l-59 -165h-116zM235 268h199l-99 281z" />
    <glyph glyph-name="B" unicode="B" horiz-adv-x="623" 
d="M77 0v700h249q102 0 163.5 -48t61.5 -133q0 -109 -103 -157q133 -47 133 -167q0 -93 -67.5 -144t-181.5 -51h-255zM190 103h146q61 0 95.5 26t34.5 74t-35 74.5t-101 26.5h-140v-201zM190 402h121q58 0 91.5 25.5t33.5 73.5q0 46 -31 71t-87 25h-128v-195z" />
    <glyph glyph-name="C" unicode="C" horiz-adv-x="617" 
d="M356 -10q-132 0 -219 99t-87 256v9q0 157 88 256.5t224 99.5q125 0 214 -81l-55 -94q-77 67 -157 67q-85 0 -139 -67.5t-54 -179.5v-9q0 -113 54 -180.5t140 -67.5q47 0 83.5 17t77.5 53l55 -85q-95 -93 -225 -93z" />
    <glyph glyph-name="D" unicode="D" horiz-adv-x="672" 
d="M77 0v700h213q148 0 240 -95.5t92 -249.5v-9q0 -154 -92 -250t-240 -96h-213zM192 105h101q94 0 151.5 64t57.5 176v9q0 111 -57.5 176t-151.5 65h-101v-490z" />
    <glyph glyph-name="E" unicode="E" horiz-adv-x="568" 
d="M77 0v700h440v-105h-325v-190h288v-105h-288v-195h329v-105h-444z" />
    <glyph glyph-name="F" unicode="F" horiz-adv-x="553" 
d="M77 0v700h437v-107h-322v-197h286v-106h-286v-290h-115z" />
    <glyph glyph-name="G" unicode="G" horiz-adv-x="670" 
d="M370 -10q-142 0 -231 97.5t-89 257.5v9q0 154 90.5 255t229.5 101q125 0 216 -72l-54 -97q-75 61 -164 61q-85 0 -141 -69.5t-56 -176.5v-10q0 -116 56 -183t147 -67q70 0 125 37v154h-148v102h257v-314q-106 -85 -238 -85z" />
    <glyph glyph-name="H" unicode="H" horiz-adv-x="659" 
d="M77 0v700h115v-294h275v294h115v-700h-115v298h-275v-298h-115z" />
    <glyph glyph-name="I" unicode="I" horiz-adv-x="281" 
d="M82 0v700h116v-700h-116z" />
    <glyph glyph-name="J" unicode="J" horiz-adv-x="475" 
d="M198 -9q-109 0 -177 81l56 89q50 -61 115 -61q45 0 71 30t26 88v482h119v-486q0 -109 -57 -166t-153 -57z" />
    <glyph glyph-name="K" unicode="K" horiz-adv-x="627" 
d="M77 0v700h115v-343l270 343h140l-243 -301l254 -399h-138l-196 306l-87 -104v-202h-115z" />
    <glyph glyph-name="L" unicode="L" horiz-adv-x="522" 
d="M77 0v700h115v-593h300v-107h-415z" />
    <glyph glyph-name="M" unicode="M" horiz-adv-x="753" 
d="M77 0v700h121l178 -321l179 321h122v-700h-114v495l-186 -324h-3l-185 322v-493h-112z" />
    <glyph glyph-name="N" unicode="N" horiz-adv-x="681" 
d="M77 0v700h107l307 -466v466h114v-700h-99l-316 481v-481h-113z" />
    <glyph glyph-name="O" unicode="O" horiz-adv-x="720" 
d="M359 -11q-136 0 -222.5 99.5t-86.5 255.5v10q0 156 87 256.5t224 100.5q136 0 222 -99.5t86 -255.5v-10q0 -156 -87 -256.5t-223 -100.5zM361 96q84 0 136.5 68t52.5 180v10q0 113 -53.5 181.5t-137.5 68.5q-83 0 -135.5 -68t-52.5 -180v-10q0 -113 53 -181.5t137 -68.5z
" />
    <glyph glyph-name="P" unicode="P" horiz-adv-x="582" 
d="M77 0v700h223q115 0 183 -62.5t68 -171.5q0 -113 -72.5 -176t-186.5 -63h-100v-227h-115zM192 332h103q64 0 102 35.5t38 95.5q0 65 -37 98.5t-102 33.5h-104v-263z" />
    <glyph glyph-name="Q" unicode="Q" horiz-adv-x="721" 
d="M611 -20l-73 69q-75 -60 -179 -60q-136 0 -222.5 99.5t-86.5 255.5v10q0 156 87 256.5t224 100.5q136 0 222 -99.5t86 -255.5v-10q0 -130 -61 -222l74 -66zM363 95q53 0 95 28l-104 92l71 78l95 -89q30 58 30 140v10q0 113 -53.5 181.5t-137.5 68.5q-83 0 -135.5 -68
t-52.5 -180v-10q0 -115 53 -183t139 -68z" />
    <glyph glyph-name="R" unicode="R" horiz-adv-x="625" 
d="M77 0v700h251q114 0 180 -58.5t66 -164.5q0 -78 -39 -130t-106 -76l164 -271h-134l-148 247h-38h-81v-247h-115zM192 350h131q62 0 98 32.5t36 92.5q0 59 -36 89.5t-100 30.5h-129v-245z" />
    <glyph glyph-name="S" unicode="S" horiz-adv-x="547" 
d="M280 -9q-136 0 -242 88l52 92q94 -75 189 -75q49 0 78.5 22.5t29.5 62.5q0 36 -26.5 61t-106.5 59q-108 46 -153 90t-45 125q0 85 61 139t155 54q118 0 209 -68l-46 -97q-86 60 -163 60q-46 0 -73 -22.5t-27 -57.5q0 -38 27 -62t111 -59q105 -45 149 -91t44 -123
q0 -91 -62.5 -144.5t-160.5 -53.5z" />
    <glyph glyph-name="T" unicode="T" horiz-adv-x="549" 
d="M217 0v592h-184v108h483v-108h-183v-592h-116z" />
    <glyph glyph-name="U" unicode="U" horiz-adv-x="655" 
d="M327 -10q-120 0 -189.5 71t-69.5 206v433h115v-433q0 -83 38.5 -127t106.5 -44t106 43t38 125v436h115v-430q0 -137 -70 -208.5t-190 -71.5z" />
    <glyph glyph-name="V" unicode="V" horiz-adv-x="640" 
d="M266 -4l-241 704h125l172 -529l172 529h122l-243 -704h-107z" />
    <glyph glyph-name="W" unicode="W" horiz-adv-x="961" 
d="M233 -4l-203 704h123l136 -508l143 509h100l143 -509l136 508h120l-204 -704h-104l-143 494l-143 -494h-104z" />
    <glyph glyph-name="X" unicode="X" horiz-adv-x="625" 
d="M30 0l214 358l-205 342h132l143 -243l143 243h129l-204 -341l213 -359h-132l-152 260l-152 -260h-129z" />
    <glyph glyph-name="Y" unicode="Y" horiz-adv-x="614" 
d="M249 0v279l-235 421h132l162 -302l163 302h128l-234 -420v-280h-116z" />
    <glyph glyph-name="Z" unicode="Z" horiz-adv-x="594" 
d="M53 0v86l344 511h-332v103h477v-86l-344 -511h344v-103h-489z" />
    <glyph glyph-name="bracketleft" unicode="[" horiz-adv-x="402" 
d="M351 -130h-269v830h269v-86h-162v-658h162v-86z" />
    <glyph glyph-name="backslash" unicode="\" horiz-adv-x="454" 
d="M472 -119h-97l-381 908h98z" />
    <glyph glyph-name="bracketright" unicode="]" horiz-adv-x="402" 
d="M320 -130h-269v86h162v658h-162v86h269v-830z" />
    <glyph glyph-name="asciicircum" unicode="^" horiz-adv-x="483" 
d="M411 499h-85l-85 129l-86 -129h-83l128 199h83z" />
    <glyph glyph-name="underscore" unicode="_" horiz-adv-x="557" 
d="M558 -158h-559v88h559v-88z" />
    <glyph glyph-name="grave" unicode="`" horiz-adv-x="502" 
d="M336 593h-83l-117 117l100 46z" />
    <glyph glyph-name="a" unicode="a" horiz-adv-x="516" 
d="M198 -10q-69 0 -116.5 43.5t-47.5 117.5v6q0 83 51.5 126.5t138.5 43.5q65 0 122 -21v21q0 109 -116 109q-61 0 -133 -30l-22 93q80 37 172 37q103 0 156.5 -53t53.5 -154v-329h-111v65q-55 -75 -148 -75zM232 75q50 0 82.5 28.5t32.5 73.5v54q-43 19 -99 19
q-49 0 -76 -23t-27 -64v-6q0 -39 24 -60.5t63 -21.5z" />
    <glyph glyph-name="b" unicode="b" horiz-adv-x="584" 
d="M333 -10q-90 0 -155 90v-80h-113v722h113v-277q61 95 155 95q87 0 147.5 -70.5t60.5 -197.5v-14q0 -127 -60.5 -197.5t-147.5 -70.5zM303 90q53 0 89 46t36 123v11q0 77 -36 123.5t-89 46.5t-89.5 -47t-36.5 -123v-11q0 -76 36.5 -122.5t89.5 -46.5z" />
    <glyph glyph-name="c" unicode="c" horiz-adv-x="486" 
d="M281 -11q-104 0 -172 76t-68 194v9q0 118 69 194.5t173 76.5q100 0 168 -68l-52 -86q-55 53 -114 53q-56 0 -93 -46.5t-37 -121.5v-10q0 -77 37.5 -123t97.5 -46q59 0 114 52l50 -79q-73 -75 -173 -75z" />
    <glyph glyph-name="d" unicode="d" horiz-adv-x="584" 
d="M251 -10q-86 0 -147 70.5t-61 197.5v13q0 127 60.5 198t147.5 71q92 0 155 -90v272h113v-722h-113v85q-61 -95 -155 -95zM282 90q52 0 89 46.5t37 122.5v11q0 76 -37 123t-89 47q-54 0 -89.5 -46t-35.5 -124v-10q0 -77 36 -123.5t89 -46.5z" />
    <glyph glyph-name="e" unicode="e" horiz-adv-x="529" 
d="M284 -11q-105 0 -174.5 74t-69.5 196v8q0 119 64.5 195.5t163.5 76.5q105 0 163 -77.5t58 -200.5q0 -27 -1 -40h-334q8 -66 44.5 -101t89.5 -35q70 0 128 55l53 -71q-75 -80 -185 -80zM153 300h225q-4 65 -33 105t-77 40q-47 0 -78 -38.5t-37 -106.5z" />
    <glyph glyph-name="f" unicode="f" horiz-adv-x="332" 
d="M89 0v433h-58v94h58v41q0 79 39 119t111 40q48 0 81 -11v-95q-27 9 -55 9q-64 0 -64 -73v-30h118v-94h-117v-433h-113z" />
    <glyph glyph-name="g" unicode="g" horiz-adv-x="584" 
d="M267 -153q-106 0 -199 49l31 91q84 -46 164 -46q144 0 144 140v51q-67 -94 -160 -94q-85 0 -144.5 66t-59.5 183v4q0 117 59.5 183t144.5 66q93 0 159 -89v79h113v-443q0 -240 -252 -240zM408 288q0 69 -37 111t-91 42q-53 0 -88 -41.5t-35 -111.5q0 -68 35.5 -109.5
t87.5 -41.5q54 0 91 41.5t37 109.5z" />
    <glyph glyph-name="h" unicode="h" horiz-adv-x="548" 
d="M65 0v722h113v-270q58 88 145 88q78 0 121.5 -50.5t43.5 -135.5v-354h-114v323q0 55 -24.5 85t-69.5 30q-46 0 -74 -32t-28 -86v-320h-113z" />
    <glyph glyph-name="i" unicode="i" horiz-adv-x="255" 
d="M70 0v530h114v-530h-114zM68 607v111h120v-111h-120z" />
    <glyph glyph-name="j" unicode="j" horiz-adv-x="257" 
d="M42 -154q-24 0 -52 5v91q14 -3 27 -3q55 0 55 63v528h113v-537q0 -147 -143 -147zM68 607v111h121v-111h-121z" />
    <glyph glyph-name="k" unicode="k" horiz-adv-x="513" 
d="M65 0v722h113v-426l183 234h134l-176 -216l181 -314h-130l-130 227l-62 -75v-152h-113z" />
    <glyph glyph-name="l" unicode="l" horiz-adv-x="255" 
d="M70 0v722h114v-722h-114z" />
    <glyph glyph-name="m" unicode="m" horiz-adv-x="840" 
d="M65 0v530h113v-77q57 87 143 87q96 0 138 -86q63 86 155 86q75 0 119.5 -49t44.5 -136v-355h-114v323q0 55 -23.5 85t-65.5 30q-44 0 -70.5 -31t-26.5 -86v-321h-113v323q0 55 -23.5 85t-67.5 30q-43 0 -69.5 -32t-26.5 -86v-320h-113z" />
    <glyph glyph-name="n" unicode="n" horiz-adv-x="548" 
d="M65 0v530h113v-78q58 88 145 88q78 0 121.5 -50.5t43.5 -135.5v-354h-114v323q0 55 -24.5 85t-69.5 30q-46 0 -74 -32t-28 -86v-320h-113z" />
    <glyph glyph-name="o" unicode="o" horiz-adv-x="573" 
d="M285 -11q-105 0 -174.5 76.5t-69.5 193.5v9q0 117 70 194t176 77q105 0 174.5 -76.5t69.5 -193.5v-9q0 -117 -70 -194t-176 -77zM287 88q59 0 95 48t36 122v10q0 75 -37.5 123.5t-95.5 48.5q-59 0 -95 -47.5t-36 -122.5v-10q0 -74 37.5 -123t95.5 -49z" />
    <glyph glyph-name="p" unicode="p" horiz-adv-x="584" 
d="M65 -151v681h113v-85q61 95 155 95q87 0 147.5 -70.5t60.5 -197.5v-14q0 -127 -60.5 -197.5t-147.5 -70.5q-90 0 -155 90v-231h-113zM303 90q53 0 89 46t36 123v11q0 77 -36 123.5t-89 46.5t-89.5 -47t-36.5 -123v-11q0 -76 36.5 -122.5t89.5 -46.5z" />
    <glyph glyph-name="q" unicode="q" horiz-adv-x="584" 
d="M406 -151v236q-61 -95 -155 -95q-86 0 -147 70.5t-61 197.5v13q0 127 60.5 198t147.5 71q92 0 155 -90v80h113v-681h-113zM282 90q52 0 89 46.5t37 122.5v11q0 76 -37 123t-89 47q-54 0 -89.5 -46t-35.5 -124v-10q0 -77 36 -123.5t89 -46.5z" />
    <glyph glyph-name="r" unicode="r" horiz-adv-x="364" 
d="M339 415h-6q-71 0 -113 -46.5t-42 -135.5v-233h-113v530h113v-104q49 116 161 112v-123z" />
    <glyph glyph-name="s" unicode="s" horiz-adv-x="436" 
d="M218 -10q-102 0 -188 63l38 86q79 -56 151 -56q34 0 54 15.5t20 42.5q0 6 -1.5 11.5t-5 10.5t-6.5 9t-10.5 9l-12 8t-14.5 8t-15.5 8t-18.5 9t-19 9q-34 16 -54.5 27.5t-43.5 31t-34 45t-11 57.5q0 71 49 112.5t125 41.5q87 0 162 -47l-34 -88q-71 42 -129 42
q-31 0 -49 -14.5t-18 -38.5q0 -6 1.5 -11t5 -10t6.5 -8.5t10 -8.5t11.5 -8t15 -8.5t16 -8.5t18.5 -9.5l19 -9.5q36 -18 55.5 -30t42.5 -31.5t33.5 -44t10.5 -56.5q0 -74 -50.5 -116t-129.5 -42z" />
    <glyph glyph-name="t" unicode="t" horiz-adv-x="360" 
d="M225 -8q-138 0 -138 137v304h-57v97h57v143h114v-143h120v-97h-120v-282q0 -58 57 -58q32 0 61 15v-93q-38 -23 -94 -23z" />
    <glyph glyph-name="u" unicode="u" horiz-adv-x="548" 
d="M224 -10q-77 0 -120.5 50t-43.5 136v354h114v-323q0 -55 25 -85t69 -30q45 0 73 31.5t28 85.5v321h114v-530h-114v77q-57 -87 -145 -87z" />
    <glyph glyph-name="v" unicode="v" horiz-adv-x="525" 
d="M210 -3l-186 533h119l120 -385l121 385h117l-186 -533h-105z" />
    <glyph glyph-name="w" unicode="w" horiz-adv-x="762" 
d="M177 -3l-149 533h116l90 -358l99 359h97l98 -359l92 358h114l-150 -533h-104l-99 353l-101 -353h-103z" />
    <glyph glyph-name="x" unicode="x" horiz-adv-x="512" 
d="M26 0l166 270l-160 260h122l103 -175l104 175h118l-160 -258l167 -272h-122l-110 186l-109 -186h-119z" />
    <glyph glyph-name="y" unicode="y" horiz-adv-x="526" 
d="M157 -154q-59 0 -111 27l34 87q33 -18 65 -18q44 0 68 57l-190 531h119l124 -393l119 393h117l-185 -541q-26 -77 -63 -110t-97 -33z" />
    <glyph glyph-name="z" unicode="z" horiz-adv-x="480" 
d="M43 0v78l259 358h-251v94h389v-78l-260 -358h260v-94h-397z" />
    <glyph glyph-name="braceleft" unicode="{" horiz-adv-x="430" 
d="M387 -65l-15 -75q-116 16 -163 61.5t-47 122.5q0 14 5.5 48t5.5 50q0 52 -25 76.5t-81 24.5h-23v88h23q55 0 80.5 25t25.5 77q0 16 -5.5 50t-5.5 48q0 76 47 121.5t163 62.5l15 -75q-72 -18 -96.5 -43.5t-24.5 -76.5q0 -17 5.5 -50.5t5.5 -49.5q0 -105 -106 -133
q106 -28 106 -133l-11 -99q0 -52 24.5 -77.5t96.5 -42.5z" />
    <glyph glyph-name="bar" unicode="|" horiz-adv-x="304" 
d="M198 -119h-91v908h91v-908z" />
    <glyph glyph-name="braceright" unicode="}" horiz-adv-x="431" 
d="M387 243h-23q-55 0 -80 -24.5t-25 -76.5q0 -16 5 -50t5 -48q0 -77 -47 -122.5t-163 -61.5l-15 75q72 17 97 42.5t25 77.5l-12 100q0 105 106 132q-106 30 -106 133q0 16 6 49.5t6 50.5q0 51 -25 76.5t-97 43.5l15 75q116 -17 163 -62t47 -123q0 -14 -5 -47.5t-5 -49.5
q0 -52 25 -77t80 -25h23v-88z" />
    <glyph glyph-name="asciitilde" unicode="~" horiz-adv-x="451" 
d="M397 360q-26 -117 -101 -117q-29 0 -75 22q-40 19 -57 19t-27 -11t-20 -37l-63 18q27 117 101 117q31 0 75 -22q42 -20 56 -20q18 0 28 11.5t20 37.5z" />
    <glyph glyph-name="uni00A0" unicode="&#xa0;" horiz-adv-x="257" 
 />
    <glyph glyph-name="exclamdown" unicode="&#xa1;" horiz-adv-x="275" 
d="M201 567h-127v133h127v-133zM204 0h-134v35l37 448h61l36 -448v-35z" />
    <glyph glyph-name="cent" unicode="&#xa2;" horiz-adv-x="496" 
d="M367 705l-11 -85q53 -14 99 -60l-51 -84q-33 32 -71 43l-47 -339h4q62 0 117 52l49 -76q-76 -78 -175 -78l-11 -84h-81l13 98q-71 27 -114 96t-43 161v8q0 116 65 192t166 80l10 76h81zM155 350q0 -115 71 -154l45 330q-52 -5 -84 -51.5t-32 -115.5v-9z" />
    <glyph glyph-name="sterling" unicode="&#xa3;" horiz-adv-x="553" 
d="M512 0h-460v74l70 22v187h-70v98h70v104q0 110 58 168q56 56 151 56q107 0 176 -81l-66 -82q-48 54 -105 54q-42 0 -67 -26q-30 -28 -30 -90v-103h205v-98h-205v-181h273v-102z" />
    <glyph glyph-name="currency" unicode="&#xa4;" horiz-adv-x="616" 
d="M577 93q-82 -104 -195 -104q-98 0 -166 63.5t-93 175.5h-82v81h71q-1 12 -1 37v7q0 29 1 43h-71v81h84q26 109 94 171.5t163 62.5q117 0 193 -97l-65 -79q-29 37 -58.5 54t-69.5 17q-48 0 -83.5 -33.5t-53.5 -95.5h185v-81h-200q-2 -13 -2 -42v-7q0 -25 1 -38h201v-81
h-187q37 -134 145 -134q66 0 127 74z" />
    <glyph glyph-name="yen" unicode="&#xa5;" horiz-adv-x="595" 
d="M353 261v-72h162v-85h-162v-104h-111v104h-161v85h161v72h-161v85h132l-196 354h130l152 -297l154 297h126l-198 -354h134v-85h-162z" />
    <glyph glyph-name="brokenbar" unicode="&#xa6;" 
d="M0 0v700h500v-700h-500zM81 49h339l-170 255zM49 96l171 254l-171 254v-508zM450 96v508l-171 -254zM250 395l170 255h-339z" />
    <glyph glyph-name="section" unicode="&#xa7;" horiz-adv-x="562" 
d="M515 346q0 -86 -101 -117q49 -36 49 -94v-1q0 -65 -49 -104t-131 -39q-116 0 -195 73l48 76q73 -58 145 -58q35 0 54 13t19 35v1q0 24 -25.5 39.5t-98.5 38.5q-101 31 -142 62t-41 82v1q0 87 102 118q-50 37 -50 94v1q0 65 48.5 103.5t132.5 38.5q112 0 188 -71l-47 -76
q-67 57 -139 57q-37 0 -55.5 -13.5t-18.5 -34.5v-1q0 -22 26.5 -39.5t97.5 -39.5q101 -31 142 -62t41 -82v-1zM411 331v2q0 23 -24.5 40.5t-89.5 38.5q-43 14 -76 16q-31 -2 -50.5 -19t-19.5 -40v-2q0 -23 24 -40.5t89 -38.5q45 -14 77 -16q31 2 50.5 19t19.5 40z" />
    <glyph glyph-name="dieresis" unicode="&#xa8;" horiz-adv-x="502" 
d="M399 598h-112v111h112v-111zM215 598h-112v111h112v-111z" />
    <glyph glyph-name="copyright" unicode="&#xa9;" horiz-adv-x="738" 
d="M693 355v-10q0 -150 -93.5 -253t-231.5 -103q-137 0 -230 102.5t-93 252.5v10q0 150 93.5 253.5t231.5 103.5q137 0 230 -103t93 -253zM656 345v10q0 136 -81 228.5t-205 92.5q-125 0 -206.5 -93t-81.5 -229v-11q0 -136 81 -227.5t205 -91.5t206 92.5t82 228.5zM497 207
q-53 -51 -123 -51q-71 0 -118.5 54.5t-47.5 140.5v4q0 86 48 140.5t122 54.5q67 0 116 -44l-33 -56q-42 35 -82 35q-44 0 -71.5 -35t-27.5 -94v-6q0 -58 28 -93.5t71 -35.5q41 0 85 37z" />
    <glyph glyph-name="ordfeminine" unicode="&#xaa;" horiz-adv-x="350" 
d="M285 408h-65v35q-29 -40 -78 -40q-39 0 -65 23.5t-26 65.5v3q0 46 28.5 70t76.5 24q32 0 65 -12v11q0 58 -62 58q-28 0 -73 -18l-13 54q49 22 96 22q57 0 86.5 -30t29.5 -86v-180zM291 290h-242v53h242v-53zM221 507v28q-25 9 -52 9q-53 0 -53 -46v-1q0 -44 45 -44
q26 0 43 15t17 39z" />
    <glyph glyph-name="guillemotleft" unicode="&#xab;" horiz-adv-x="554" 
d="M509 87l-88 -46l-154 219v8l154 220l88 -45l-125 -178zM280 87l-88 -46l-154 219v8l154 220l87 -45l-124 -178z" />
    <glyph glyph-name="logicalnot" unicode="&#xac;" horiz-adv-x="590" 
d="M404 417h-332v107h442v-280h-110v173z" />
    <glyph glyph-name="uni00AD" unicode="&#xad;" horiz-adv-x="381" 
d="M329 250h-278v112h278v-112z" />
    <glyph glyph-name="registered" unicode="&#xae;" horiz-adv-x="738" 
d="M693 355v-10q0 -150 -93.5 -253t-231.5 -103q-137 0 -230 102.5t-93 252.5v10q0 150 93.5 253.5t231.5 103.5q137 0 230 -103t93 -253zM656 345v10q0 136 -81 228.5t-205 92.5q-125 0 -206.5 -93t-81.5 -229v-11q0 -136 81 -227.5t205 -91.5t206 92.5t82 228.5zM517 429
v-2q0 -41 -21 -69.5t-56 -41.5l88 -148h-78l-80 133h-61v-133h-68v381h139q62 0 99.5 -31.5t37.5 -88.5zM448 425v1q0 31 -19 46.5t-52 15.5h-68v-127h69q32 0 51 17t19 47z" />
    <glyph glyph-name="macron" unicode="&#xaf;" horiz-adv-x="502" 
d="M408 602h-314v84h314v-84z" />
    <glyph glyph-name="degree" unicode="&#xb0;" horiz-adv-x="410" 
d="M354 541q0 -67 -44.5 -114.5t-104.5 -47.5t-104.5 47.5t-44.5 114.5v3q0 67 44.5 114.5t104.5 47.5t104.5 -47.5t44.5 -114.5v-3zM285 541v3q0 42 -23.5 69.5t-56.5 27.5q-34 0 -56.5 -27.5t-22.5 -69.5v-3q0 -42 22.5 -69.5t56.5 -27.5q33 0 56.5 27.5t23.5 69.5z" />
    <glyph glyph-name="plusminus" unicode="&#xb1;" horiz-adv-x="590" 
d="M68 25v101h454v-101h-454zM240 195v144h-176v106h176v144h111v-144h173v-106h-173v-144h-111z" />
    <glyph glyph-name="twosuperior" unicode="&#xb2;" 
d="M0 0v700h500v-700h-500zM81 49h339l-170 255zM49 96l171 254l-171 254v-508zM450 96v508l-171 -254zM250 395l170 255h-339z" />
    <glyph glyph-name="threesuperior" unicode="&#xb3;" 
d="M0 0v700h500v-700h-500zM81 49h339l-170 255zM49 96l171 254l-171 254v-508zM450 96v508l-171 -254zM250 395l170 255h-339z" />
    <glyph glyph-name="acute" unicode="&#xb4;" horiz-adv-x="502" 
d="M363 710l-117 -117h-83l100 163z" />
    <glyph glyph-name="mu" unicode="&#xb5;" horiz-adv-x="555" 
d="M490 0h-113v78q-20 -36 -55 -58.5t-80 -22.5q-43 0 -63 24v-172h-114v681h114v-306q0 -59 25.5 -97t69.5 -38q53 0 78 42t25 115v284h113v-530z" />
    <glyph glyph-name="paragraph" unicode="&#xb6;" horiz-adv-x="496" 
d="M290 700h131v-700h-117v241h-13q-114 2 -186 61.5t-72 167.5v1q0 108 71 168.5t186 60.5z" />
    <glyph glyph-name="periodcentered" unicode="&#xb7;" horiz-adv-x="254" 
d="M191 240h-128v132h128v-132z" />
    <glyph glyph-name="cedilla" unicode="&#xb8;" horiz-adv-x="502" 
d="M307 12l-71 -168l-99 40l89 128h81z" />
    <glyph glyph-name="onesuperior" unicode="&#xb9;" 
d="M0 0v700h500v-700h-500zM81 49h339l-170 255zM49 96l171 254l-171 254v-508zM450 96v508l-171 -254zM250 395l170 255h-339z" />
    <glyph glyph-name="ordmasculine" unicode="&#xba;" horiz-adv-x="350" 
d="M307 552q0 -65 -37.5 -107.5t-95.5 -42.5q-57 0 -94 42t-37 107v5q0 64 37.5 106.5t94.5 42.5t94.5 -42.5t37.5 -106.5v-4zM301 290h-253v53h253v-53zM241 551v5q0 39 -18.5 65t-48.5 26t-48 -25.5t-18 -64.5v-6q0 -39 18.5 -65t48.5 -26t48 25.5t18 65.5z" />
    <glyph glyph-name="guillemotright" unicode="&#xbb;" horiz-adv-x="554" 
d="M516 260l-154 -219l-88 45l126 178l-126 177l88 47l154 -220v-8zM287 260l-155 -219l-88 45l127 178l-126 177l87 47l155 -220v-8z" />
    <glyph glyph-name="onequarter" unicode="&#xbc;" 
d="M0 0v700h500v-700h-500zM81 49h339l-170 255zM49 96l171 254l-171 254v-508zM450 96v508l-171 -254zM250 395l170 255h-339z" />
    <glyph glyph-name="onehalf" unicode="&#xbd;" 
d="M0 0v700h500v-700h-500zM81 49h339l-170 255zM49 96l171 254l-171 254v-508zM450 96v508l-171 -254zM250 395l170 255h-339z" />
    <glyph glyph-name="threequarters" unicode="&#xbe;" 
d="M0 0v700h500v-700h-500zM81 49h339l-170 255zM49 96l171 254l-171 254v-508zM450 96v508l-171 -254zM250 395l170 255h-339z" />
    <glyph glyph-name="questiondown" unicode="&#xbf;" horiz-adv-x="475" 
d="M198 700h128v-132h-128v132zM36 191q0 156 178 196l10 96h75l17 -166l-4 -5q-162 -15 -162 -118v-2q0 -42 29.5 -68t78.5 -26q76 0 141 63l52 -83q-83 -86 -200 -86q-97 0 -156 53.5t-59 141.5v4z" />
    <glyph glyph-name="Agrave" unicode="&#xc0;" horiz-adv-x="674" 
d="M25 0l256 704h112l256 -704h-120l-59 165h-270l-59 -165h-116zM235 268h199l-99 281zM385 752h-83l-117 117l100 46z" />
    <glyph glyph-name="Aacute" unicode="&#xc1;" horiz-adv-x="674" 
d="M25 0l256 704h112l256 -704h-120l-59 165h-270l-59 -165h-116zM235 268h199l-99 281zM487 869l-117 -117h-83l100 163z" />
    <glyph glyph-name="Acircumflex" unicode="&#xc2;" horiz-adv-x="674" 
d="M25 0l256 704h112l256 -704h-120l-59 165h-270l-59 -165h-116zM235 268h199l-99 281zM491 752h-86l-69 76l-69 -76h-84l103 146h102z" />
    <glyph glyph-name="Atilde" unicode="&#xc3;" horiz-adv-x="674" 
d="M649 0h-120l-59 165h-270l-59 -165h-116l256 704h112zM434 268l-99 281l-100 -281h199zM507 867q-26 -116 -101 -116q-29 0 -81 24q-34 18 -50 18q-18 0 -27.5 -11t-20.5 -38l-63 19q27 116 101 116q35 0 79 -23q33 -18 53 -18q17 0 27.5 11t19.5 38z" />
    <glyph glyph-name="Adieresis" unicode="&#xc4;" horiz-adv-x="674" 
d="M25 0l256 704h112l256 -704h-120l-59 165h-270l-59 -165h-116zM235 268h199l-99 281zM485 757h-112v111h112v-111zM301 757h-112v111h112v-111z" />
    <glyph glyph-name="Aring" unicode="&#xc5;" horiz-adv-x="674" 
d="M649 0h-120l-59 165h-271l-58 -165h-117l249 682q-46 31 -46 87v2q0 45 33 77.5t77 32.5t77 -32.5t33 -77.5v-2q0 -55 -46 -87zM394 769v2q0 24 -16.5 42t-40.5 18t-40.5 -18t-16.5 -42v-2q0 -24 16.5 -42t40.5 -18t40.5 18t16.5 42zM434 268l-99 281l-100 -281h199z" />
    <glyph glyph-name="AE" unicode="&#xc6;" horiz-adv-x="894" 
d="M847 0h-430v165h-213l-77 -165h-117l329 700h503v-105h-310v-190h274v-105h-274v-195h315v-105zM417 268v326h-17l-149 -326h166z" />
    <glyph glyph-name="Ccedilla" unicode="&#xc7;" horiz-adv-x="617" 
d="M294 -3q-109 22 -176.5 116t-67.5 232v9q0 157 88 256.5t224 99.5q125 0 214 -81l-55 -94q-77 67 -157 67q-85 0 -139 -67.5t-54 -179.5v-9q0 -113 54 -180.5t140 -67.5q47 0 83.5 17t77.5 53l55 -85q-89 -87 -204 -92l-62 -147l-99 40z" />
    <glyph glyph-name="Egrave" unicode="&#xc8;" horiz-adv-x="568" 
d="M521 0h-444v700h440v-105h-325v-190h288v-105h-288v-195h329v-105zM360 752h-83l-117 117l100 46z" />
    <glyph glyph-name="Eacute" unicode="&#xc9;" horiz-adv-x="568" 
d="M77 0v700h440v-105h-325v-190h288v-105h-288v-195h329v-105h-444zM431 869l-117 -117h-83l100 163z" />
    <glyph glyph-name="Ecircumflex" unicode="&#xca;" horiz-adv-x="568" 
d="M521 0h-444v700h440v-105h-325v-190h288v-105h-288v-195h329v-105zM447 753h-86l-69 76l-69 -76h-84l103 146h102z" />
    <glyph glyph-name="Edieresis" unicode="&#xcb;" horiz-adv-x="568" 
d="M77 0v700h440v-105h-325v-190h288v-105h-288v-195h329v-105h-444zM443 757h-112v111h112v-111zM259 757h-112v111h112v-111z" />
    <glyph glyph-name="Igrave" unicode="&#xcc;" horiz-adv-x="281" 
d="M198 0h-116v700h116v-700zM186 752h-83l-117 117l100 46z" />
    <glyph glyph-name="Iacute" unicode="&#xcd;" horiz-adv-x="281" 
d="M82 0v700h116v-700h-116zM293 869l-117 -117h-83l100 163z" />
    <glyph glyph-name="Icircumflex" unicode="&#xce;" horiz-adv-x="281" 
d="M198 0h-116v700h116v-700zM295 753h-86l-69 76l-69 -76h-84l103 146h102z" />
    <glyph glyph-name="Idieresis" unicode="&#xcf;" horiz-adv-x="281" 
d="M82 0v700h116v-700h-116zM289 757h-112v111h112v-111zM105 757h-112v111h112v-111z" />
    <glyph glyph-name="Eth" unicode="&#xd0;" horiz-adv-x="700" 
d="M649 347q0 -155 -92 -251t-240 -96h-213v299h-68v105h68v296h213q148 0 240 -96t92 -250v-7zM529 346v6q0 112 -58 177t-152 65h-101v-190h144v-105h-144v-194h102q94 0 151.5 64.5t57.5 176.5z" />
    <glyph glyph-name="Ntilde" unicode="&#xd1;" horiz-adv-x="681" 
d="M77 0v700h107l307 -466v466h114v-700h-99l-316 481v-481h-113zM514 867q-26 -116 -101 -116q-29 0 -81 24q-34 18 -50 18q-18 0 -27.5 -11t-20.5 -38l-63 19q27 116 101 116q35 0 79 -23q33 -18 53 -18q17 0 27.5 11t19.5 38z" />
    <glyph glyph-name="Ograve" unicode="&#xd2;" horiz-adv-x="720" 
d="M359 -11q-136 0 -222.5 99.5t-86.5 255.5v10q0 156 87 256.5t224 100.5q136 0 222 -99.5t86 -255.5v-10q0 -156 -87 -256.5t-223 -100.5zM361 96q84 0 136.5 68t52.5 180v10q0 113 -53.5 181.5t-137.5 68.5q-83 0 -135.5 -68t-52.5 -180v-10q0 -113 53 -181.5t137 -68.5z
M399 752h-83l-117 117l100 46z" />
    <glyph glyph-name="Oacute" unicode="&#xd3;" horiz-adv-x="720" 
d="M359 -11q-136 0 -222.5 99.5t-86.5 255.5v10q0 156 87 256.5t224 100.5q136 0 222 -99.5t86 -255.5v-10q0 -156 -87 -256.5t-223 -100.5zM361 96q84 0 136.5 68t52.5 180v10q0 113 -53.5 181.5t-137.5 68.5q-83 0 -135.5 -68t-52.5 -180v-10q0 -113 53 -181.5t137 -68.5z
M516 869l-117 -117h-83l100 163z" />
    <glyph glyph-name="Ocircumflex" unicode="&#xd4;" horiz-adv-x="720" 
d="M669 346q0 -156 -87 -256.5t-223 -100.5t-222.5 99.5t-86.5 255.5v10q0 156 87 256.5t224 100.5q136 0 222 -99.5t86 -255.5v-10zM550 344v10q0 113 -53.5 181.5t-137.5 68.5q-83 0 -135.5 -68t-52.5 -180v-10q0 -113 53 -181.5t137 -68.5t136.5 68t52.5 180zM514 753
h-86l-69 76l-69 -76h-84l103 146h102z" />
    <glyph glyph-name="Otilde" unicode="&#xd5;" horiz-adv-x="720" 
d="M359 -11q-136 0 -222.5 99.5t-86.5 255.5v10q0 156 87 256.5t224 100.5q136 0 222 -99.5t86 -255.5v-10q0 -156 -87 -256.5t-223 -100.5zM361 96q84 0 136.5 68t52.5 180v10q0 113 -53.5 181.5t-137.5 68.5q-83 0 -135.5 -68t-52.5 -180v-10q0 -113 53 -181.5t137 -68.5z
M531 867q-26 -116 -101 -116q-29 0 -81 24q-34 18 -50 18q-18 0 -27.5 -11t-20.5 -38l-63 19q27 116 101 116q35 0 79 -23q33 -18 53 -18q17 0 27.5 11t19.5 38z" />
    <glyph glyph-name="Odieresis" unicode="&#xd6;" horiz-adv-x="720" 
d="M359 -11q-136 0 -222.5 99.5t-86.5 255.5v10q0 156 87 256.5t224 100.5q136 0 222 -99.5t86 -255.5v-10q0 -156 -87 -256.5t-223 -100.5zM361 96q84 0 136.5 68t52.5 180v10q0 113 -53.5 181.5t-137.5 68.5q-83 0 -135.5 -68t-52.5 -180v-10q0 -113 53 -181.5t137 -68.5z
M508 757h-112v111h112v-111zM324 757h-112v111h112v-111z" />
    <glyph glyph-name="multiply" unicode="&#xd7;" 
d="M0 0v700h500v-700h-500zM81 49h339l-170 255zM49 96l171 254l-171 254v-508zM450 96v508l-171 -254zM250 395l170 255h-339z" />
    <glyph glyph-name="Oslash" unicode="&#xd8;" horiz-adv-x="720" 
d="M669 354v-8q0 -156 -87 -256.5t-223 -100.5q-98 0 -171 53l-38 -47h-103l80 104q-77 99 -77 245v9q0 156 87.5 257t223.5 101q98 0 172 -57l39 51h104l-83 -109q76 -97 76 -242zM466 559q-44 47 -107 47q-85 0 -138 -69.5t-53 -182.5v-8q0 -77 35 -137zM552 344v9
q0 73 -35 132l-263 -349q44 -44 107 -44q84 0 137.5 70t53.5 182z" />
    <glyph glyph-name="Ugrave" unicode="&#xd9;" horiz-adv-x="655" 
d="M327 -10q-120 0 -189.5 71t-69.5 206v433h115v-433q0 -83 38.5 -127t106.5 -44t106 43t38 125v436h115v-430q0 -137 -70 -208.5t-190 -71.5zM375 749h-83l-117 117l100 46z" />
    <glyph glyph-name="Uacute" unicode="&#xda;" horiz-adv-x="655" 
d="M327 -10q-120 0 -189.5 71t-69.5 206v433h115v-433q0 -83 38.5 -127t106.5 -44t106 43t38 125v436h115v-430q0 -137 -70 -208.5t-190 -71.5zM479 866l-117 -117h-83l100 163z" />
    <glyph glyph-name="Ucircumflex" unicode="&#xdb;" horiz-adv-x="655" 
d="M587 270q0 -137 -70 -208.5t-190 -71.5t-189.5 71t-69.5 206v433h115v-433q0 -83 38.5 -127t106.5 -44t106 43t38 125v436h115v-430zM482 752h-86l-69 76l-69 -76h-84l103 146h102z" />
    <glyph glyph-name="Udieresis" unicode="&#xdc;" horiz-adv-x="655" 
d="M587 270q0 -137 -70 -208.5t-190 -71.5t-189.5 71t-69.5 206v433h115v-433q0 -83 38.5 -127t106.5 -44t106 43t38 125v436h115v-430zM476 756h-112v111h112v-111zM292 756h-112v111h112v-111z" />
    <glyph glyph-name="Yacute" unicode="&#xdd;" horiz-adv-x="614" 
d="M249 0v279l-235 421h132l162 -302l163 302h128l-234 -420v-280h-116zM462 866l-117 -117h-83l100 163z" />
    <glyph glyph-name="Thorn" unicode="&#xde;" horiz-adv-x="585" 
d="M551 358q0 -113 -73 -175.5t-186 -63.5h-100v-119h-116v700h116v-108h110q112 0 180.5 -62.5t68.5 -171.5zM434 355q0 64 -37 97.5t-101 33.5h-104v-263h103q64 0 101.5 36t37.5 96z" />
    <glyph glyph-name="germandbls" unicode="&#xdf;" horiz-adv-x="552" 
d="M510 196q0 -94 -66 -147t-181 -51v89q65 3 99.5 32t34.5 80v1q0 48 -35.5 78.5t-98.5 39.5v79q100 48 100 137v2q0 43 -24 68.5t-64 25.5q-44 0 -70.5 -33t-26.5 -90v-507h-113v503q0 104 58 164.5t157 60.5q90 0 142.5 -51t52.5 -130v-2q0 -112 -103 -171
q138 -48 138 -176v-2z" />
    <glyph glyph-name="agrave" unicode="&#xe0;" horiz-adv-x="516" 
d="M457 0h-111v65q-55 -75 -148 -75q-69 0 -116.5 43.5t-47.5 117.5v6q0 83 51.5 126.5t138.5 43.5q65 0 122 -21v21q0 109 -116 109q-61 0 -133 -30l-22 93q80 37 172 37q103 0 156.5 -53t53.5 -154v-329zM347 177v54q-43 19 -99 19q-49 0 -76 -23t-27 -64v-6
q0 -39 24 -60.5t63 -21.5q50 0 82.5 28.5t32.5 73.5zM306 593h-83l-117 117l100 46z" />
    <glyph glyph-name="aacute" unicode="&#xe1;" horiz-adv-x="516" 
d="M198 -10q-69 0 -116.5 43.5t-47.5 117.5v6q0 83 51.5 126.5t138.5 43.5q65 0 122 -21v21q0 109 -116 109q-61 0 -133 -30l-22 93q80 37 172 37q103 0 156.5 -53t53.5 -154v-329h-111v65q-55 -75 -148 -75zM232 75q50 0 82.5 28.5t32.5 73.5v54q-43 19 -99 19
q-49 0 -76 -23t-27 -64v-6q0 -39 24 -60.5t63 -21.5zM401 710l-117 -117h-83l100 163z" />
    <glyph glyph-name="acircumflex" unicode="&#xe2;" horiz-adv-x="516" 
d="M198 -10q-69 0 -116.5 43.5t-47.5 117.5v6q0 83 51.5 126.5t138.5 43.5q65 0 122 -21v21q0 109 -116 109q-61 0 -133 -30l-22 93q80 37 172 37q103 0 156.5 -53t53.5 -154v-329h-111v65q-55 -75 -148 -75zM232 75q50 0 82.5 28.5t32.5 73.5v54q-43 19 -99 19
q-49 0 -76 -23t-27 -64v-6q0 -39 24 -60.5t63 -21.5zM411 594h-86l-69 76l-69 -76h-84l103 146h102z" />
    <glyph glyph-name="atilde" unicode="&#xe3;" horiz-adv-x="516" 
d="M198 -10q-69 0 -116.5 43.5t-47.5 117.5v6q0 83 51.5 126.5t138.5 43.5q65 0 122 -21v21q0 109 -116 109q-61 0 -133 -30l-22 93q80 37 172 37q103 0 156.5 -53t53.5 -154v-329h-111v65q-55 -75 -148 -75zM232 75q50 0 82.5 28.5t32.5 73.5v54q-43 19 -99 19
q-49 0 -76 -23t-27 -64v-6q0 -39 24 -60.5t63 -21.5zM429 708q-26 -116 -101 -116q-29 0 -81 24q-34 18 -50 18q-18 0 -27.5 -11t-20.5 -38l-63 19q27 116 101 116q35 0 79 -23q33 -18 53 -18q17 0 27.5 11t19.5 38z" />
    <glyph glyph-name="adieresis" unicode="&#xe4;" horiz-adv-x="516" 
d="M457 0h-111v65q-55 -75 -148 -75q-69 0 -116.5 43.5t-47.5 117.5v6q0 83 51.5 126.5t138.5 43.5q65 0 122 -21v21q0 109 -116 109q-61 0 -133 -30l-22 93q80 37 172 37q103 0 156.5 -53t53.5 -154v-329zM347 177v54q-43 19 -99 19q-49 0 -76 -23t-27 -64v-6
q0 -39 24 -60.5t63 -21.5q50 0 82.5 28.5t32.5 73.5zM404 598h-112v111h112v-111zM220 598h-112v111h112v-111z" />
    <glyph glyph-name="aring" unicode="&#xe5;" horiz-adv-x="516" 
d="M457 0h-111v65q-55 -75 -148 -75q-69 0 -116.5 43.5t-47.5 117.5v6q0 83 51.5 126.5t138.5 43.5q65 0 122 -21v21q0 109 -116 109q-61 0 -133 -30l-22 93q80 37 172 37q103 0 156.5 -53t53.5 -154v-329zM347 177v54q-43 19 -99 19q-49 0 -76 -23t-27 -64v-6
q0 -39 24 -60.5t63 -21.5q50 0 82.5 28.5t32.5 73.5zM364 700v-3q0 -44 -32.5 -76t-76.5 -32t-77 32t-33 76v3q0 45 32.5 77t77.5 32q44 0 76.5 -32t32.5 -77zM312 698v2q0 24 -16.5 42t-40.5 18t-41 -18t-17 -42v-2q0 -24 17 -42t41 -18t40.5 18t16.5 42z" />
    <glyph glyph-name="ae" unicode="&#xe6;" horiz-adv-x="829" 
d="M209 -10q-77 0 -126 43.5t-49 119.5v5q0 82 51 125.5t138 43.5q63 0 121 -21v21q0 109 -115 109q-60 0 -132 -30l-22 93q82 37 171 37q121 0 165 -80q59 83 159 83q104 0 162 -77.5t58 -200.5l-1 -40h-335q8 -66 44.5 -101t90.5 -35q68 0 129 55l51 -71q-75 -80 -185 -80
q-119 0 -186 95q-81 -94 -189 -94zM232 76q73 0 131 74q-13 35 -16 82q-50 18 -100 18q-49 0 -75.5 -22.5t-26.5 -64.5v-4q0 -39 24 -61t63 -22zM453 300h226q-5 66 -33.5 105.5t-77.5 39.5q-47 0 -78 -38.5t-37 -106.5z" />
    <glyph glyph-name="ccedilla" unicode="&#xe7;" horiz-adv-x="486" 
d="M220 -2q-80 20 -129.5 91t-49.5 170v9q0 118 69 194.5t173 76.5q100 0 168 -68l-52 -86q-55 53 -114 53q-56 0 -93 -46.5t-37 -121.5v-10q0 -77 37.5 -123t97.5 -46q59 0 114 52l50 -79q-64 -68 -152 -74l-63 -146l-99 40z" />
    <glyph glyph-name="egrave" unicode="&#xe8;" horiz-adv-x="529" 
d="M489 261l-1 -40h-334q8 -66 44.5 -101t89.5 -35q70 0 128 55l53 -71q-75 -80 -185 -80q-105 0 -174.5 74t-69.5 196v8q0 119 64.5 195.5t163.5 76.5q105 0 163 -77.5t58 -200.5zM378 300q-4 65 -33 105t-77 40q-47 0 -78 -38.5t-37 -106.5h225zM312 593h-83l-117 117
l100 46z" />
    <glyph glyph-name="eacute" unicode="&#xe9;" horiz-adv-x="529" 
d="M284 -11q-105 0 -174.5 74t-69.5 196v8q0 119 64.5 195.5t163.5 76.5q105 0 163 -77.5t58 -200.5q0 -27 -1 -40h-334q8 -66 44.5 -101t89.5 -35q70 0 128 55l53 -71q-75 -80 -185 -80zM153 300h225q-4 65 -33 105t-77 40q-47 0 -78 -38.5t-37 -106.5zM417 710l-117 -117
h-83l100 163z" />
    <glyph glyph-name="ecircumflex" unicode="&#xea;" horiz-adv-x="529" 
d="M284 -11q-105 0 -174.5 74t-69.5 196v8q0 119 64.5 195.5t163.5 76.5q105 0 163 -77.5t58 -200.5q0 -27 -1 -40h-334q8 -66 44.5 -101t89.5 -35q70 0 128 55l53 -71q-75 -80 -185 -80zM153 300h225q-4 65 -33 105t-77 40q-47 0 -78 -38.5t-37 -106.5zM422 594h-86l-69 76
l-69 -76h-84l103 146h102z" />
    <glyph glyph-name="edieresis" unicode="&#xeb;" horiz-adv-x="529" 
d="M489 261l-1 -40h-334q8 -66 44.5 -101t89.5 -35q70 0 128 55l53 -71q-75 -80 -185 -80q-105 0 -174.5 74t-69.5 196v8q0 119 64.5 195.5t163.5 76.5q105 0 163 -77.5t58 -200.5zM378 300q-4 65 -33 105t-77 40q-47 0 -78 -38.5t-37 -106.5h225zM416 598h-112v111h112
v-111zM232 598h-112v111h112v-111z" />
    <glyph glyph-name="igrave" unicode="&#xec;" horiz-adv-x="255" 
d="M184 0h-114v530h114v-530zM174 593h-83l-117 117l100 46z" />
    <glyph glyph-name="iacute" unicode="&#xed;" horiz-adv-x="255" 
d="M184 0h-114v530h114v-530zM279 710l-117 -117h-83l100 163z" />
    <glyph glyph-name="icircumflex" unicode="&#xee;" horiz-adv-x="255" 
d="M184 0h-114v530h114v-530zM282 594h-86l-69 76l-69 -76h-84l103 146h102z" />
    <glyph glyph-name="idieresis" unicode="&#xef;" horiz-adv-x="255" 
d="M184 0h-114v530h114v-530zM276 598h-112v111h112v-111zM92 598h-112v111h112v-111z" />
    <glyph glyph-name="eth" unicode="&#xf0;" horiz-adv-x="560" 
d="M517 249q0 -113 -66.5 -186.5t-175.5 -73.5q-101 0 -167.5 71t-66.5 181v4q0 105 57 170t141 65q64 0 121 -42l-90 136l-106 -51l-44 64l110 51l-53 84h124l23 -40l88 41l44 -64l-92 -42l76 -120q77 -124 77 -244v-4zM405 239v4q0 68 -36 109.5t-92 41.5t-90 -41
t-34 -110v-4q0 -68 35.5 -110.5t91.5 -42.5t90.5 42.5t34.5 110.5z" />
    <glyph glyph-name="ntilde" unicode="&#xf1;" horiz-adv-x="548" 
d="M488 0h-114v323q0 55 -24.5 85t-69.5 30q-46 0 -74 -32t-28 -86v-320h-113v530h113v-78q58 88 145 88q78 0 121.5 -50.5t43.5 -135.5v-354zM449 708q-26 -116 -101 -116q-29 0 -81 24q-34 18 -50 18q-18 0 -27.5 -11t-20.5 -38l-63 19q27 116 101 116q35 0 79 -23
q33 -18 53 -18q17 0 27.5 11t19.5 38z" />
    <glyph glyph-name="ograve" unicode="&#xf2;" horiz-adv-x="573" 
d="M531 260q0 -117 -70 -194t-176 -77q-105 0 -174.5 76.5t-69.5 193.5v9q0 117 70 194t176 77q105 0 174.5 -76.5t69.5 -193.5v-9zM418 258v10q0 75 -37.5 123.5t-95.5 48.5q-59 0 -95 -47.5t-36 -122.5v-10q0 -74 37.5 -123t95.5 -49q59 0 95 48t36 122zM329 593h-83
l-117 117l100 46z" />
    <glyph glyph-name="oacute" unicode="&#xf3;" horiz-adv-x="573" 
d="M285 -11q-105 0 -174.5 76.5t-69.5 193.5v9q0 117 70 194t176 77q105 0 174.5 -76.5t69.5 -193.5v-9q0 -117 -70 -194t-176 -77zM287 88q59 0 95 48t36 122v10q0 75 -37.5 123.5t-95.5 48.5q-59 0 -95 -47.5t-36 -122.5v-10q0 -74 37.5 -123t95.5 -49zM443 710l-117 -117
h-83l100 163z" />
    <glyph glyph-name="ocircumflex" unicode="&#xf4;" horiz-adv-x="573" 
d="M285 -11q-105 0 -174.5 76.5t-69.5 193.5v9q0 117 70 194t176 77q105 0 174.5 -76.5t69.5 -193.5v-9q0 -117 -70 -194t-176 -77zM287 88q59 0 95 48t36 122v10q0 75 -37.5 123.5t-95.5 48.5q-59 0 -95 -47.5t-36 -122.5v-10q0 -74 37.5 -123t95.5 -49zM440 594h-86
l-69 76l-69 -76h-84l103 146h102z" />
    <glyph glyph-name="otilde" unicode="&#xf5;" horiz-adv-x="573" 
d="M285 -11q-105 0 -174.5 76.5t-69.5 193.5v9q0 117 70 194t176 77q105 0 174.5 -76.5t69.5 -193.5v-9q0 -117 -70 -194t-176 -77zM287 88q59 0 95 48t36 122v10q0 75 -37.5 123.5t-95.5 48.5q-59 0 -95 -47.5t-36 -122.5v-10q0 -74 37.5 -123t95.5 -49zM457 708
q-26 -116 -101 -116q-29 0 -81 24q-34 18 -50 18q-18 0 -27.5 -11t-20.5 -38l-63 19q27 116 101 116q35 0 79 -23q33 -18 53 -18q17 0 27.5 11t19.5 38z" />
    <glyph glyph-name="odieresis" unicode="&#xf6;" horiz-adv-x="573" 
d="M531 260q0 -117 -70 -194t-176 -77q-105 0 -174.5 76.5t-69.5 193.5v9q0 117 70 194t176 77q105 0 174.5 -76.5t69.5 -193.5v-9zM418 258v10q0 75 -37.5 123.5t-95.5 48.5q-59 0 -95 -47.5t-36 -122.5v-10q0 -74 37.5 -123t95.5 -49q59 0 95 48t36 122zM434 598h-112v111
h112v-111zM250 598h-112v111h112v-111z" />
    <glyph glyph-name="divide" unicode="&#xf7;" horiz-adv-x="590" 
d="M514 299h-438v107h438v-107zM360 97h-118v122h118v-122zM360 486h-118v122h118v-122z" />
    <glyph glyph-name="oslash" unicode="&#xf8;" horiz-adv-x="573" 
d="M531 268v-8q0 -117 -70 -194t-176 -77q-71 0 -132 40l-29 -34h-95l68 86q-56 73 -56 178v7q0 118 70 195.5t176 77.5q74 0 131 -41l30 37h95l-69 -88q57 -73 57 -179zM356 414q-30 28 -71 28q-59 0 -97 -49t-38 -125v-8q0 -44 20 -82zM422 258v9q0 45 -20 83l-186 -237
q30 -28 71 -28q59 0 97 49t38 124z" />
    <glyph glyph-name="ugrave" unicode="&#xf9;" horiz-adv-x="548" 
d="M483 0h-114v77q-57 -87 -145 -87q-77 0 -120.5 50t-43.5 136v354h114v-323q0 -55 25 -85t69 -30q45 0 73 31.5t28 85.5v321h114v-530zM324 592h-83l-117 117l100 46z" />
    <glyph glyph-name="uacute" unicode="&#xfa;" horiz-adv-x="548" 
d="M224 -10q-77 0 -120.5 50t-43.5 136v354h114v-323q0 -55 25 -85t69 -30q45 0 73 31.5t28 85.5v321h114v-530h-114v77q-57 -87 -145 -87zM421 709l-117 -117h-83l100 163z" />
    <glyph glyph-name="ucircumflex" unicode="&#xfb;" horiz-adv-x="548" 
d="M224 -10q-77 0 -120.5 50t-43.5 136v354h114v-323q0 -55 25 -85t69 -30q45 0 73 31.5t28 85.5v321h114v-530h-114v77q-57 -87 -145 -87zM428 594h-86l-69 76l-69 -76h-84l103 146h102z" />
    <glyph glyph-name="udieresis" unicode="&#xfc;" horiz-adv-x="548" 
d="M483 0h-114v77q-57 -87 -145 -87q-77 0 -120.5 50t-43.5 136v354h114v-323q0 -55 25 -85t69 -30q45 0 73 31.5t28 85.5v321h114v-530zM422 598h-112v111h112v-111zM238 598h-112v111h112v-111z" />
    <glyph glyph-name="yacute" unicode="&#xfd;" horiz-adv-x="526" 
d="M502 530l-185 -541q-27 -77 -63.5 -110t-96.5 -33q-59 0 -111 27l34 87q33 -18 65 -18q44 0 68 57l-190 531h119l124 -393l119 393h117zM410 709l-117 -117h-83l100 163z" />
    <glyph glyph-name="thorn" unicode="&#xfe;" horiz-adv-x="584" 
d="M541 258q0 -127 -60.5 -197.5t-147.5 -70.5q-92 0 -155 90v-231h-113v873h113v-277q63 95 155 95q86 0 147 -71t61 -198v-13zM427 260v9q0 77 -35.5 123.5t-88.5 46.5t-90 -47t-37 -123v-10q0 -76 37 -122.5t90 -46.5t88.5 46t35.5 124z" />
    <glyph glyph-name="ydieresis" unicode="&#xff;" horiz-adv-x="526" 
d="M157 -154q-59 0 -111 27l34 87q33 -18 65 -18q44 0 68 57l-190 531h119l124 -393l119 393h117l-185 -541q-26 -77 -63 -110t-97 -33zM411 598h-112v111h112v-111zM227 598h-112v111h112v-111z" />
    <glyph glyph-name="dotlessi" unicode="&#x131;" horiz-adv-x="255" 
d="M184 0h-114v530h114v-530z" />
    <glyph glyph-name="Lslash" unicode="&#x141;" horiz-adv-x="549" 
d="M517 0h-414v283l-66 -21v108l66 20v310h114v-275l170 52v-108l-170 -51v-212h300v-106z" />
    <glyph glyph-name="lslash" unicode="&#x142;" horiz-adv-x="317" 
d="M214 334v-334h-112v296l-72 -25v108l72 25v318h112v-280l73 24v-108z" />
    <glyph glyph-name="OE" unicode="&#x152;" horiz-adv-x="936" 
d="M888 0h-506q-148 0 -240 95.5t-92 250.5v6q0 154 92 251t240 97h502v-105h-310v-190h273v-105h-273v-195h314v-105zM458 105v489h-79q-94 0 -151 -64t-57 -176v-7q0 -113 57 -177.5t151 -64.5h79z" />
    <glyph glyph-name="oe" unicode="&#x153;" horiz-adv-x="903" 
d="M281 -11q-101 0 -170.5 77t-69.5 193v8q0 117 70 194.5t173 77.5q120 0 186 -104q59 104 174 104q104 0 162 -77.5t58 -200.5l-1 -40h-334q8 -66 44.5 -101t90.5 -35q69 0 128 55l51 -71q-75 -80 -185 -80q-61 0 -110.5 28t-78.5 78q-30 -50 -79.5 -78t-108.5 -28z
M284 88q58 0 93.5 47.5t35.5 123.5v9q0 75 -36.5 123.5t-93.5 48.5q-58 0 -93.5 -47.5t-35.5 -123.5v-9q0 -75 37 -123.5t93 -48.5zM527 300h226q-5 66 -33.5 105.5t-77.5 39.5q-47 0 -77.5 -38.5t-37.5 -106.5z" />
    <glyph glyph-name="Scaron" unicode="&#x160;" horiz-adv-x="547" 
d="M280 -9q-136 0 -242 88l52 92q94 -75 189 -75q49 0 78.5 22.5t29.5 62.5q0 36 -26.5 61t-106.5 59q-108 46 -153 90t-45 125q0 85 61 139t155 54q118 0 209 -68l-46 -97q-86 60 -163 60q-46 0 -73 -22.5t-27 -57.5q0 -38 27 -62t111 -59q105 -45 149 -91t44 -123
q0 -91 -62.5 -144.5t-160.5 -53.5zM429 899l-103 -146h-102l-103 146h86l68 -76l69 76h85z" />
    <glyph glyph-name="scaron" unicode="&#x161;" horiz-adv-x="436" 
d="M398 148q0 -74 -50.5 -116t-129.5 -42q-102 0 -188 63l38 86q79 -56 151 -56q34 0 54 15t20 41v2q0 6 -1.5 11.5t-5 10.5t-6.5 9t-10.5 9l-12 8t-14.5 8t-15.5 8t-18.5 9t-19 9q-34 16 -54.5 27.5t-43.5 31t-34 44t-11 56.5v2q0 71 49 112.5t125 41.5q87 0 162 -47
l-34 -88q-71 42 -129 42q-31 0 -49 -14t-18 -37v-2q0 -6 1.5 -11t5 -9.5t6.5 -8.5t10 -9t12 -8.5t14.5 -8.5t15.5 -8.5t18.5 -9.5t19.5 -10q35 -17 55 -29t43 -31.5t33.5 -43.5t10.5 -55v-2zM375 740l-103 -146h-102l-103 146h86l68 -76l69 76h85z" />
    <glyph glyph-name="Ydieresis" unicode="&#x178;" horiz-adv-x="614" 
d="M599 700l-234 -420v-280h-116v279l-235 421h132l162 -302l163 302h128zM455 756h-112v111h112v-111zM271 756h-112v111h112v-111z" />
    <glyph glyph-name="Zcaron" unicode="&#x17d;" horiz-adv-x="594" 
d="M53 0v86l344 511h-332v103h477v-86l-344 -511h344v-103h-489zM455 899l-103 -146h-102l-103 146h86l68 -76l69 76h85z" />
    <glyph glyph-name="zcaron" unicode="&#x17e;" horiz-adv-x="480" 
d="M440 0h-397v78l259 358h-251v94h389v-78l-260 -358h260v-94zM401 740l-103 -146h-102l-103 146h86l68 -76l69 76h85z" />
    <glyph glyph-name="florin" unicode="&#x192;" horiz-adv-x="468" 
d="M439 596q-40 10 -61 10q-62 0 -74 -74l-11 -78h114v-94h-128l-33 -220q-11 -77 -50 -111t-110 -34q-30 0 -53 5v95q17 -3 36 -3q56 0 66 64l29 204h-70v94h85l14 100q23 151 162 151q44 0 84 -11v-98z" />
    <glyph glyph-name="circumflex" unicode="&#x2c6;" horiz-adv-x="502" 
d="M405 594h-86l-69 76l-69 -76h-84l103 146h102z" />
    <glyph glyph-name="caron" unicode="&#x2c7;" horiz-adv-x="502" 
d="M405 740l-103 -146h-102l-103 146h86l68 -76l69 76h85z" />
    <glyph glyph-name="breve" unicode="&#x2d8;" horiz-adv-x="502" 
d="M406 734q-4 -68 -47 -106t-108 -38t-108 38t-48 106h78q15 -65 78 -65t78 65h77z" />
    <glyph glyph-name="dotaccent" unicode="&#x2d9;" horiz-adv-x="502" 
d="M310 592h-119v115h119v-115z" />
    <glyph glyph-name="ring" unicode="&#x2da;" horiz-adv-x="502" 
d="M360 700v-3q0 -44 -32.5 -76t-76.5 -32t-77 32t-33 76v3q0 45 32.5 77t77.5 32q44 0 76.5 -32t32.5 -77zM308 698v2q0 24 -16.5 42t-40.5 18t-41 -18t-17 -42v-2q0 -24 17 -42t41 -18t40.5 18t16.5 42z" />
    <glyph glyph-name="ogonek" unicode="&#x2db;" horiz-adv-x="502" 
d="M364 -159q-89 -3 -136.5 25.5t-47.5 81.5q0 32 16 64h78q-6 -23 -6 -45q0 -66 96 -71v-55z" />
    <glyph glyph-name="tilde" unicode="&#x2dc;" horiz-adv-x="502" 
d="M422 708q-26 -116 -101 -116q-29 0 -81 24q-34 18 -50 18q-18 0 -27.5 -11t-20.5 -38l-63 19q27 116 101 116q35 0 79 -23q33 -18 53 -18q17 0 27.5 11t19.5 38z" />
    <glyph glyph-name="hungarumlaut" unicode="&#x2dd;" horiz-adv-x="502" 
d="M437 710l-117 -117h-80l100 163zM265 710l-115 -117h-81l99 163z" />
    <glyph glyph-name="pi" unicode="&#x3c0;" 
d="M0 0v700h500v-700h-500zM81 49h339l-170 255zM49 96l171 254l-171 254v-508zM450 96v508l-171 -254zM250 395l170 255h-339z" />
    <glyph glyph-name="afii10023" unicode="&#x401;" horiz-adv-x="568" 
d="M77 0v700h440v-105h-325v-190h288v-105h-288v-195h329v-105h-444zM442 757h-112v111h112v-111zM258 757h-112v111h112v-111z" />
    <glyph glyph-name="afii10051" unicode="&#x402;" horiz-adv-x="746" 
d="M483 -4q-51 1 -93 16l12 97q24 -8 50 -8q50 0 82 30.5t32 99.5q0 67 -31 100.5t-85 33.5q-80 0 -144 -56v-309h-116v594h-160v106h491v-106h-215v-183q79 57 173 57q95 0 150 -63.5t55 -178.5q0 -111 -54.5 -170.5t-146.5 -59.5z" />
    <glyph glyph-name="afii10052" unicode="&#x403;" horiz-adv-x="491" 
d="M192 594v-594h-115v700h402v-106h-287zM404 869l-117 -117h-83l100 163z" />
    <glyph glyph-name="afii10053" unicode="&#x404;" horiz-adv-x="614" 
d="M357 -10q-134 0 -220.5 98.5t-86.5 257.5v8q0 156 88.5 255.5t226.5 99.5q67 0 113.5 -20.5t94.5 -60.5l-49 -88q-77 62 -140 62q-82 0 -139.5 -52.5t-71.5 -146.5h258v-102h-259q13 -96 69 -150t139 -54q70 0 149 67l55 -85q-89 -89 -227 -89z" />
    <glyph glyph-name="afii10054" unicode="&#x405;" horiz-adv-x="547" 
d="M280 -9q-136 0 -242 88l52 92q94 -75 189 -75q49 0 78.5 22.5t29.5 62.5q0 36 -26.5 61t-106.5 59q-108 46 -153 90t-45 125q0 85 61 139t155 54q118 0 209 -68l-46 -97q-86 60 -163 60q-46 0 -73 -22.5t-27 -57.5q0 -38 27 -62t111 -59q105 -45 149 -91t44 -123
q0 -91 -62.5 -144.5t-160.5 -53.5z" />
    <glyph glyph-name="afii10055" unicode="&#x406;" horiz-adv-x="281" 
d="M82 0v700h116v-700h-116z" />
    <glyph glyph-name="afii10056" unicode="&#x407;" horiz-adv-x="281" 
d="M82 0v700h116v-700h-116zM289 757h-112v111h112v-111zM105 757h-112v111h112v-111z" />
    <glyph glyph-name="afii10057" unicode="&#x408;" horiz-adv-x="475" 
d="M198 -9q-109 0 -177 81l56 89q50 -61 115 -61q45 0 71 30t26 88v482h119v-486q0 -109 -57 -166t-153 -57z" />
    <glyph glyph-name="afii10058" unicode="&#x409;" horiz-adv-x="980" 
d="M471 0v594h-197v-119q0 -148 -12.5 -244t-39.5 -147.5t-61.5 -71t-86.5 -19.5q-32 0 -72 10l8 99q16 -6 36 -6q27 0 45.5 12.5t37 51t27.5 123t9 215.5v202h421v-247h123q111 0 176 -60t65 -164q0 -108 -70 -168.5t-179 -60.5h-230zM586 105h118q60 0 95 32.5t35 88.5
q0 59 -34.5 90.5t-94.5 31.5h-119v-243z" />
    <glyph glyph-name="afii10059" unicode="&#x40a;" horiz-adv-x="993" 
d="M582 700v-267h150q106 0 168.5 -57t62.5 -157q0 -103 -67.5 -161t-171.5 -58h-257v325h-275v-325h-115v700h115v-267h275v267h115zM582 105h145q55 0 87.5 30t32.5 81q0 54 -32 83t-87 29h-146v-223z" />
    <glyph glyph-name="afii10060" unicode="&#x40b;" horiz-adv-x="746" 
d="M306 594v-178q82 56 173 56q92 0 148.5 -56.5t56.5 -169.5v-246h-115v226q0 133 -112 133q-90 0 -151 -54v-305h-115v594h-161v106h491v-106h-215z" />
    <glyph glyph-name="afii10061" unicode="&#x40c;" horiz-adv-x="627" 
d="M77 0v700h115v-343l270 343h140l-243 -301l254 -399h-138l-196 306l-87 -104v-202h-115zM453 869l-117 -117h-83l100 163z" />
    <glyph glyph-name="afii10062" unicode="&#x40e;" horiz-adv-x="625" 
d="M178 -10q-58 0 -111 25l33 93q32 -16 69 -16q50 0 94 76l-244 532h128l176 -396l159 396h122l-232 -551q-36 -84 -81 -121.5t-113 -37.5zM323 748q-58 0 -97 35.5t-49 97.5l72 14q17 -67 74 -67t74 67l72 -14q-10 -63 -49 -98t-97 -35z" />
    <glyph glyph-name="afii10145" unicode="&#x40f;" horiz-adv-x="655" 
d="M77 0v700h116v-595h270v595h115v-700h-194v-136h-111v136h-196z" />
    <glyph glyph-name="afii10017" unicode="&#x410;" horiz-adv-x="674" 
d="M25 0l256 704h112l256 -704h-120l-59 165h-270l-59 -165h-116zM235 268h199l-99 281z" />
    <glyph glyph-name="afii10018" unicode="&#x411;" horiz-adv-x="615" 
d="M192 594v-171h150q106 0 168.5 -55.5t62.5 -153.5q0 -103 -67 -158.5t-172 -55.5h-257v700h448v-106h-333zM192 105h145q56 0 88 27.5t32 78.5q0 52 -32 79.5t-87 27.5h-146v-213z" />
    <glyph glyph-name="afii10019" unicode="&#x412;" horiz-adv-x="623" 
d="M77 0v700h249q102 0 163.5 -48t61.5 -133q0 -109 -103 -157q133 -47 133 -167q0 -93 -67.5 -144t-181.5 -51h-255zM190 103h146q61 0 95.5 26t34.5 74t-35 74.5t-101 26.5h-140v-201zM190 402h121q58 0 91.5 25.5t33.5 73.5q0 46 -31 71t-87 25h-128v-195z" />
    <glyph glyph-name="afii10020" unicode="&#x413;" horiz-adv-x="491" 
d="M192 594v-594h-115v700h402v-106h-287z" />
    <glyph glyph-name="afii10021" unicode="&#x414;" horiz-adv-x="663" 
d="M455 594h-199q0 -170 -15.5 -287t-54.5 -201h269v488zM535 0h-417l-12 -136h-99v242h59q45 98 62.5 233t17.5 361h425v-594h75l-15 -242h-96v136z" />
    <glyph glyph-name="afii10022" unicode="&#x415;" horiz-adv-x="568" 
d="M77 0v700h440v-105h-325v-190h288v-105h-288v-195h329v-105h-444z" />
    <glyph glyph-name="afii10024" unicode="&#x416;" horiz-adv-x="939" 
d="M527 0h-115v197l-84 115l-179 -312h-137l235 396l-222 304h136l251 -354v354h115v-354l251 354h134l-222 -304l236 -396h-136l-180 312l-83 -115v-197z" />
    <glyph glyph-name="afii10025" unicode="&#x417;" horiz-adv-x="543" 
d="M266 -10q-148 0 -244 84l51 92q82 -70 172 -70q55 0 98 27.5t43 77.5q0 61 -44.5 83.5t-131.5 23.5h-31v96h34q82 0 121 25.5t39 82.5q0 43 -36.5 68t-90.5 25q-83 0 -155 -61l-46 83q48 42 101.5 62t131.5 20q92 0 150.5 -51.5t58.5 -129.5q0 -116 -115 -165
q129 -40 129 -168q0 -91 -65 -148t-170 -57z" />
    <glyph glyph-name="afii10026" unicode="&#x418;" horiz-adv-x="669" 
d="M77 0v700h114v-366q0 -21 -0.5 -63.5t-0.5 -64.5l294 494h108v-700h-113v367q0 85 1 127l-295 -494h-108z" />
    <glyph glyph-name="afii10027" unicode="&#x419;" horiz-adv-x="669" 
d="M77 0v700h114v-366q0 -21 -0.5 -63.5t-0.5 -64.5l294 494h108v-700h-113v367q0 85 1 127l-295 -494h-108zM339 748q-58 0 -97 35.5t-49 97.5l72 14q17 -67 74 -67t74 67l72 -14q-10 -63 -49 -98t-97 -35z" />
    <glyph glyph-name="afii10028" unicode="&#x41a;" horiz-adv-x="627" 
d="M77 0v700h115v-343l270 343h140l-243 -301l254 -399h-138l-196 306l-87 -104v-202h-115z" />
    <glyph glyph-name="afii10029" unicode="&#x41b;" horiz-adv-x="662" 
d="M74 -7q-32 0 -72 10l8 99q16 -6 36 -6q27 0 45.5 12.5t37 51t27.5 123t9 215.5v202h421v-700h-115v594h-197v-119q0 -148 -12.5 -244t-39.5 -147.5t-61.5 -71t-86.5 -19.5z" />
    <glyph glyph-name="afii10030" unicode="&#x41c;" horiz-adv-x="753" 
d="M77 0v700h121l178 -321l179 321h122v-700h-114v495l-186 -324h-3l-185 322v-493h-112z" />
    <glyph glyph-name="afii10031" unicode="&#x41d;" horiz-adv-x="659" 
d="M77 0v700h115v-294h275v294h115v-700h-115v298h-275v-298h-115z" />
    <glyph glyph-name="afii10032" unicode="&#x41e;" horiz-adv-x="720" 
d="M359 -11q-136 0 -222.5 99.5t-86.5 255.5v10q0 156 87 256.5t224 100.5q136 0 222 -99.5t86 -255.5v-10q0 -156 -87 -256.5t-223 -100.5zM361 96q84 0 136.5 68t52.5 180v10q0 113 -53.5 181.5t-137.5 68.5q-83 0 -135.5 -68t-52.5 -180v-10q0 -113 53 -181.5t137 -68.5z
" />
    <glyph glyph-name="afii10033" unicode="&#x41f;" horiz-adv-x="654" 
d="M77 0v700h500v-700h-115v594h-270v-594h-115z" />
    <glyph glyph-name="afii10034" unicode="&#x420;" horiz-adv-x="582" 
d="M77 0v700h223q115 0 183 -62.5t68 -171.5q0 -113 -72.5 -176t-186.5 -63h-100v-227h-115zM192 332h103q64 0 102 35.5t38 95.5q0 65 -37 98.5t-102 33.5h-104v-263z" />
    <glyph glyph-name="afii10035" unicode="&#x421;" horiz-adv-x="617" 
d="M356 -10q-132 0 -219 99t-87 256v9q0 157 88 256.5t224 99.5q125 0 214 -81l-55 -94q-77 67 -157 67q-85 0 -139 -67.5t-54 -179.5v-9q0 -113 54 -180.5t140 -67.5q47 0 83.5 17t77.5 53l55 -85q-95 -93 -225 -93z" />
    <glyph glyph-name="afii10036" unicode="&#x422;" horiz-adv-x="549" 
d="M217 0v592h-184v108h483v-108h-183v-592h-116z" />
    <glyph glyph-name="afii10037" unicode="&#x423;" horiz-adv-x="625" 
d="M178 -10q-58 0 -111 25l33 93q32 -16 69 -16q50 0 94 76l-244 532h128l176 -396l159 396h122l-232 -551q-36 -84 -81 -121.5t-113 -37.5z" />
    <glyph glyph-name="afii10038" unicode="&#x424;" horiz-adv-x="810" 
d="M347 -21v77q-143 2 -226 83t-83 211v12q0 130 84 209.5t225 80.5v68h115v-68q140 -1 224.5 -80.5t84.5 -210.5v-11q0 -130 -83 -211t-226 -83v-77h-115zM462 160q89 0 140 52t51 140v8q0 85 -51 136t-140 52v-388zM347 160v388q-89 -1 -140.5 -52t-51.5 -136v-12
q0 -86 52 -136.5t140 -51.5z" />
    <glyph glyph-name="afii10039" unicode="&#x425;" horiz-adv-x="625" 
d="M30 0l214 358l-205 342h132l143 -243l143 243h129l-204 -341l213 -359h-132l-152 260l-152 -260h-129z" />
    <glyph glyph-name="afii10040" unicode="&#x426;" horiz-adv-x="670" 
d="M543 -136v136h-466v700h115v-594h271v594h115v-594h76l-15 -242h-96z" />
    <glyph glyph-name="afii10041" unicode="&#x427;" horiz-adv-x="610" 
d="M417 376v324h116v-700h-116v272q-91 -49 -167 -49q-93 0 -147.5 52.5t-54.5 157.5v267h115v-219q0 -150 113 -150q75 0 141 45z" />
    <glyph glyph-name="afii10042" unicode="&#x428;" horiz-adv-x="957" 
d="M880 700v-700h-803v700h115v-596h229v596h116v-596h228v596h115z" />
    <glyph glyph-name="afii10043" unicode="&#x429;" horiz-adv-x="971" 
d="M844 -137v137h-767v700h115v-594h229v594h115v-594h229v594h115v-594h75l-15 -243h-96z" />
    <glyph glyph-name="afii10044" unicode="&#x42a;" horiz-adv-x="682" 
d="M403 0h-231v594h-144v106h260v-247h123q111 0 176 -60t65 -164q0 -108 -70 -168.5t-179 -60.5zM288 105h118q60 0 95 32.5t35 88.5q0 59 -34.5 90.5t-94.5 31.5h-119v-243z" />
    <glyph glyph-name="afii10045" unicode="&#x42b;" horiz-adv-x="815" 
d="M192 700v-247h123q111 0 176 -60t65 -164q0 -108 -70 -168.5t-179 -60.5h-230v700h115zM192 105h118q60 0 95 32.5t35 88.5q0 59 -34.5 90.5t-94.5 31.5h-119v-243zM623 0v700h115v-700h-115z" />
    <glyph glyph-name="afii10046" unicode="&#x42c;" horiz-adv-x="586" 
d="M192 700v-247h123q111 0 176 -60t65 -164q0 -108 -70 -168.5t-179 -60.5h-230v700h115zM192 105h118q60 0 95 32.5t35 88.5q0 59 -34.5 90.5t-94.5 31.5h-119v-243z" />
    <glyph glyph-name="afii10047" unicode="&#x42d;" horiz-adv-x="614" 
d="M257 -10q-138 0 -227 89l55 85q79 -67 149 -67q83 0 139 54t69 150h-259v102h258q-14 94 -71.5 146.5t-139.5 52.5q-63 0 -140 -62l-49 88q48 40 94.5 60.5t113.5 20.5q138 0 226.5 -99.5t88.5 -255.5v-8q0 -159 -86.5 -257.5t-220.5 -98.5z" />
    <glyph glyph-name="afii10048" unicode="&#x42e;" horiz-adv-x="918" 
d="M577 -11q-118 0 -196 84.5t-91 225.5h-97v-299h-116v700h116v-296h98q14 138 92 222.5t195 84.5q129 0 209.5 -99.5t80.5 -257.5v-9q0 -158 -81 -257t-210 -99zM578 93q77 0 124 68.5t47 183.5v9q0 114 -47.5 182.5t-124.5 68.5t-123.5 -67.5t-46.5 -183.5v-9
q0 -114 47.5 -183t123.5 -69z" />
    <glyph glyph-name="afii10049" unicode="&#x42f;" horiz-adv-x="624" 
d="M547 700v-700h-115v245q-82 0 -120 1l-145 -246h-138l165 270q-67 23 -106 75t-39 131q0 224 265 224h233zM300 347h132v247h-105q-95 0 -128 -28t-33 -96q0 -58 36.5 -90.5t97.5 -32.5z" />
    <glyph glyph-name="afii10065" unicode="&#x430;" horiz-adv-x="516" 
d="M198 -10q-69 0 -116.5 43.5t-47.5 117.5v6q0 83 51.5 126.5t138.5 43.5q65 0 122 -21v21q0 109 -116 109q-61 0 -133 -30l-22 93q80 37 172 37q103 0 156.5 -53t53.5 -154v-329h-111v65q-55 -75 -148 -75zM232 75q50 0 82.5 28.5t32.5 73.5v54q-43 19 -99 19
q-49 0 -76 -23t-27 -64v-6q0 -39 24 -60.5t63 -21.5z" />
    <glyph glyph-name="afii10066" unicode="&#x431;" horiz-adv-x="571" 
d="M289 -11q-111 0 -175 77t-64 215v13q0 59 2.5 101t13 90.5t29.5 81t52.5 58.5t81.5 37l255 58l20 -93l-247 -59q-63 -15 -90 -51t-30 -92q20 37 64 64t108 27q91 0 155.5 -73t64.5 -185v-3q0 -117 -65 -191.5t-175 -74.5zM290 87q57 0 91.5 46.5t34.5 119.5v4
q0 73 -36 120t-91 47t-90 -46.5t-35 -120.5v-4q0 -72 36 -119t90 -47z" />
    <glyph glyph-name="afii10067" unicode="&#x432;" horiz-adv-x="521" 
d="M65 530h222q77 0 123.5 -36t46.5 -101q0 -83 -78 -119q101 -35 101 -126q0 -71 -51 -109.5t-138 -38.5h-226v530zM178 90h96q43 0 67 18t24 52q0 33 -24.5 51.5t-70.5 18.5h-92v-140zM178 310h85q39 0 61.5 17t22.5 50q0 31 -21 47.5t-59 16.5h-89v-131z" />
    <glyph glyph-name="afii10068" unicode="&#x433;" horiz-adv-x="411" 
d="M65 0v530h328v-97h-215v-433h-113z" />
    <glyph glyph-name="afii10069" unicode="&#x434;" horiz-adv-x="565" 
d="M367 433h-145q0 -231 -47 -336h192v336zM435 0h-319l-8 -116h-97v213h50q54 119 54 362v71h364v-433h65l-12 -213h-97v116z" />
    <glyph glyph-name="afii10070" unicode="&#x435;" horiz-adv-x="529" 
d="M284 -11q-105 0 -174.5 74t-69.5 196v8q0 119 64.5 195.5t163.5 76.5q105 0 163 -77.5t58 -200.5q0 -27 -1 -40h-334q8 -66 44.5 -101t89.5 -35q70 0 128 55l53 -71q-75 -80 -185 -80zM153 300h225q-4 65 -33 105t-77 40q-47 0 -78 -38.5t-37 -106.5z" />
    <glyph glyph-name="afii10072" unicode="&#x436;" horiz-adv-x="766" 
d="M439 0h-112v146l-62 86l-132 -232h-124l177 302l-171 228h129l183 -255v255h112v-255l183 255h129l-171 -228l177 -302h-125l-132 232l-61 -86v-146z" />
    <glyph glyph-name="afii10073" unicode="&#x437;" horiz-adv-x="448" 
d="M214 -11q-116 0 -192 62l41 89q67 -50 129 -50q44 0 73.5 17t29.5 51q0 40 -28 55t-99 15h-25v83h25q61 0 88 16t27 58q0 58 -83 58q-72 0 -125 -43l-38 79q73 60 182 60q78 0 128 -38.5t50 -100.5q0 -85 -83 -122q92 -32 92 -129q0 -70 -53.5 -115t-138.5 -45z" />
    <glyph glyph-name="afii10074" unicode="&#x438;" horiz-adv-x="560" 
d="M495 530v-530h-110v348l-212 -348h-108v530h111v-346l210 346h109z" />
    <glyph glyph-name="afii10075" unicode="&#x439;" horiz-adv-x="560" 
d="M495 530v-530h-110v348l-212 -348h-108v530h111v-346l210 346h109zM284 588q-57 0 -95.5 35t-46.5 97l68 12q17 -67 74 -67q59 0 74 67l68 -12q-8 -62 -46 -97t-96 -35z" />
    <glyph glyph-name="afii10076" unicode="&#x43a;" horiz-adv-x="522" 
d="M178 136v-136h-113v530h113v-248l191 248h130l-175 -223l188 -307h-131l-133 220z" />
    <glyph glyph-name="afii10077" unicode="&#x43b;" horiz-adv-x="550" 
d="M37 92q18 0 30 7t24.5 32t19.5 71t11.5 128t4.5 200h357v-530h-113v433h-138q0 -141 -10 -229.5t-33.5 -133.5t-51.5 -60t-74 -15q-19 0 -64 6l6 95q14 -4 31 -4z" />
    <glyph glyph-name="afii10078" unicode="&#x43c;" horiz-adv-x="636" 
d="M318 293l140 237h113v-530h-113v352l-141 -233h-1l-140 232v-351h-111v530h114z" />
    <glyph glyph-name="afii10079" unicode="&#x43d;" horiz-adv-x="553" 
d="M488 530v-530h-113v218h-197v-218h-113v530h113v-216h197v216h113z" />
    <glyph glyph-name="afii10080" unicode="&#x43e;" horiz-adv-x="573" 
d="M285 -11q-105 0 -174.5 76.5t-69.5 193.5v9q0 117 70 194t176 77q105 0 174.5 -76.5t69.5 -193.5v-9q0 -117 -70 -194t-176 -77zM287 88q59 0 95 48t36 122v10q0 75 -37.5 123.5t-95.5 48.5q-59 0 -95 -47.5t-36 -122.5v-10q0 -74 37.5 -123t95.5 -49z" />
    <glyph glyph-name="afii10081" unicode="&#x43f;" horiz-adv-x="548" 
d="M483 530v-530h-112v433h-193v-433h-113v530h418z" />
    <glyph glyph-name="afii10082" unicode="&#x440;" horiz-adv-x="584" 
d="M65 -151v681h113v-85q61 95 155 95q87 0 147.5 -70.5t60.5 -197.5v-14q0 -127 -60.5 -197.5t-147.5 -70.5q-90 0 -155 90v-231h-113zM303 90q53 0 89 46t36 123v11q0 77 -36 123.5t-89 46.5t-89.5 -47t-36.5 -123v-11q0 -76 36.5 -122.5t89.5 -46.5z" />
    <glyph glyph-name="afii10083" unicode="&#x441;" horiz-adv-x="486" 
d="M281 -11q-104 0 -172 76t-68 194v9q0 118 69 194.5t173 76.5q100 0 168 -68l-52 -86q-55 53 -114 53q-56 0 -93 -46.5t-37 -121.5v-10q0 -77 37.5 -123t97.5 -46q59 0 114 52l50 -79q-73 -75 -173 -75z" />
    <glyph glyph-name="afii10084" unicode="&#x442;" horiz-adv-x="435" 
d="M162 0v433h-146v97h403v-97h-145v-433h-112z" />
    <glyph glyph-name="afii10085" unicode="&#x443;" horiz-adv-x="526" 
d="M157 -154q-59 0 -111 27l34 87q33 -18 65 -18q44 0 68 57l-190 531h119l124 -393l119 393h117l-185 -541q-26 -77 -63 -110t-97 -33z" />
    <glyph glyph-name="afii10086" unicode="&#x444;" horiz-adv-x="784" 
d="M336 -151v191q-41 -48 -109 -48q-82 0 -133.5 71.5t-51.5 206.5q0 128 51 197.5t135 69.5q64 0 108 -54v217h112v-217q44 54 108 54q84 0 135 -70t51 -198v-6q0 -131 -51.5 -201t-133.5 -70q-68 0 -109 48v-191h-112zM522 89q51 0 78.5 45t27.5 129q0 81 -28 128t-78 47
q-42 0 -74 -45v-266q32 -38 74 -38zM263 89q41 0 73 38v266q-30 45 -73 45q-50 0 -78.5 -47t-28.5 -128q0 -83 27.5 -128.5t79.5 -45.5z" />
    <glyph glyph-name="afii10087" unicode="&#x445;" horiz-adv-x="512" 
d="M26 0l166 270l-160 260h122l103 -175l104 175h118l-160 -258l167 -272h-122l-110 186l-109 -186h-119z" />
    <glyph glyph-name="afii10088" unicode="&#x446;" horiz-adv-x="566" 
d="M437 -116v116h-372v530h113v-433h193v433h112v-433h63l-11 -213h-98z" />
    <glyph glyph-name="afii10089" unicode="&#x447;" horiz-adv-x="524" 
d="M345 0v201q-61 -36 -137 -36q-71 0 -114 41t-43 119v205h113v-176q0 -43 20.5 -67.5t55.5 -24.5q57 0 105 31v237h112v-530h-112z" />
    <glyph glyph-name="afii10090" unicode="&#x448;" horiz-adv-x="800" 
d="M735 530v-530h-670v530h113v-433h166v433h112v-433h167v433h112z" />
    <glyph glyph-name="afii10091" unicode="&#x449;" horiz-adv-x="819" 
d="M691 -116v116h-626v530h113v-433h166v433h112v-433h167v433h112v-433h64l-10 -213h-98z" />
    <glyph glyph-name="afii10092" unicode="&#x44a;" horiz-adv-x="561" 
d="M336 0h-205v433h-121v97h235v-187h89q91 0 145 -42t54 -125q0 -87 -53 -131.5t-144 -44.5zM245 91h87q40 0 64 22t24 59q0 40 -23.5 61t-63.5 21h-88v-163z" />
    <glyph glyph-name="afii10093" unicode="&#x44b;" horiz-adv-x="704" 
d="M527 0v530h112v-530h-112zM65 0v530h113v-187h89q91 0 145 -42t54 -125q0 -87 -53 -131.5t-144 -44.5h-204zM178 91h87q40 0 64 22t24 59q0 40 -23.5 61t-63.5 21h-88v-163z" />
    <glyph glyph-name="afii10094" unicode="&#x44c;" horiz-adv-x="492" 
d="M65 0v530h113v-187h89q91 0 145 -42t54 -125q0 -87 -53 -131.5t-144 -44.5h-204zM178 91h87q40 0 64 22t24 59q0 40 -23.5 61t-63.5 21h-88v-163z" />
    <glyph glyph-name="afii10095" unicode="&#x44d;" horiz-adv-x="481" 
d="M200 -11q-104 0 -176 74l51 77q53 -51 103 -51q57 0 97 35.5t50 97.5h-175v86h175q-9 56 -42.5 92t-80.5 39q-75 0 -125 -49l-45 80q69 67 162 67q107 0 176.5 -75.5t69.5 -194.5v-8q0 -118 -68.5 -194t-171.5 -76z" />
    <glyph glyph-name="afii10096" unicode="&#x44e;" horiz-adv-x="760" 
d="M486 -11q-93 0 -155 62.5t-74 164.5h-79v-216h-113v530h113v-217h79q13 101 75.5 163t154.5 62q103 0 167.5 -76t64.5 -195v-7q0 -118 -65 -194.5t-168 -76.5zM487 87q54 0 87 49t33 127t-34 127t-87 49q-55 0 -87 -48t-32 -128q0 -79 33 -127.5t87 -48.5z" />
    <glyph glyph-name="afii10097" unicode="&#x44f;" horiz-adv-x="523" 
d="M458 530v-530h-112v181h-86l-103 -181h-135l127 203q-49 18 -78 57.5t-29 96.5q0 83 48 128t146 45h222zM246 268h100v170h-82q-62 0 -86 -19.5t-24 -65.5q0 -40 25 -62.5t67 -22.5z" />
    <glyph glyph-name="afii10071" unicode="&#x451;" horiz-adv-x="529" 
d="M284 -11q-105 0 -174.5 74t-69.5 196v8q0 119 64.5 195.5t163.5 76.5q105 0 163 -77.5t58 -200.5q0 -27 -1 -40h-334q8 -66 44.5 -101t89.5 -35q70 0 128 55l53 -71q-75 -80 -185 -80zM153 300h225q-4 65 -33 105t-77 40q-47 0 -78 -38.5t-37 -106.5zM412 598h-112v111
h112v-111zM228 598h-112v111h112v-111z" />
    <glyph glyph-name="afii10099" unicode="&#x452;" horiz-adv-x="548" 
d="M315 -6q-44 0 -86 14l15 89q17 -6 34 -6q44 0 70 29t26 80v103q0 55 -24.5 85t-69.5 30q-46 0 -74 -32t-28 -86v-300h-113v564h-61v86h61v72h113v-72h162v-86h-162v-132q58 88 145 88q78 0 121.5 -50.5t43.5 -135.5v-161q0 -83 -46.5 -131t-126.5 -48z" />
    <glyph glyph-name="afii10100" unicode="&#x453;" horiz-adv-x="411" 
d="M65 0v530h328v-97h-215v-433h-113zM346 710l-117 -117h-83l100 163z" />
    <glyph glyph-name="afii10101" unicode="&#x454;" horiz-adv-x="481" 
d="M281 -11q-103 0 -171.5 76t-68.5 194v8q0 119 69.5 194.5t176.5 75.5q93 0 162 -67l-45 -80q-50 49 -125 49q-47 -3 -80.5 -39t-42.5 -92h175v-86h-175q10 -62 50 -97.5t97 -35.5q50 0 103 51l51 -77q-72 -74 -176 -74z" />
    <glyph glyph-name="afii10102" unicode="&#x455;" horiz-adv-x="436" 
d="M218 -10q-102 0 -188 63l38 86q79 -56 151 -56q34 0 54 15.5t20 42.5q0 6 -1.5 11.5t-5 10.5t-6.5 9t-10.5 9l-12 8t-14.5 8t-15.5 8t-18.5 9t-19 9q-34 16 -54.5 27.5t-43.5 31t-34 45t-11 57.5q0 71 49 112.5t125 41.5q87 0 162 -47l-34 -88q-71 42 -129 42
q-31 0 -49 -14.5t-18 -38.5q0 -6 1.5 -11t5 -10t6.5 -8.5t10 -8.5t11.5 -8t15 -8.5t16 -8.5t18.5 -9.5l19 -9.5q36 -18 55.5 -30t42.5 -31.5t33.5 -44t10.5 -56.5q0 -74 -50.5 -116t-129.5 -42z" />
    <glyph glyph-name="afii10103" unicode="&#x456;" horiz-adv-x="255" 
d="M70 0v530h114v-530h-114zM68 607v111h120v-111h-120z" />
    <glyph glyph-name="afii10104" unicode="&#x457;" horiz-adv-x="255" 
d="M276 598h-112v111h112v-111zM92 598h-112v111h112v-111zM184 0h-114v530h114v-530z" />
    <glyph glyph-name="afii10105" unicode="&#x458;" horiz-adv-x="257" 
d="M42 -154q-24 0 -52 5v91q14 -3 27 -3q55 0 55 63v528h113v-537q0 -147 -143 -147zM68 607v111h121v-111h-121z" />
    <glyph glyph-name="afii10106" unicode="&#x459;" horiz-adv-x="799" 
d="M372 0v433h-139q0 -141 -10 -229.5t-33.5 -133.5t-51.5 -60t-74 -15q-19 0 -64 6l6 95q14 -4 31 -4q18 0 30 7t24.5 32t19.5 71t11.5 128t4.5 200h358v-187h89q91 0 145 -42t54 -125q0 -87 -53 -131.5t-144 -44.5h-204zM485 91h87q40 0 64 22t24 59q0 40 -23.5 61
t-63.5 21h-88v-163z" />
    <glyph glyph-name="afii10107" unicode="&#x45a;" horiz-adv-x="802" 
d="M375 0v237h-197v-237h-113v530h113v-197h197v197h113v-197h89q92 0 145.5 -39.5t53.5 -122.5q0 -87 -52.5 -129t-144.5 -42h-204zM488 91h87q41 0 64.5 20t23.5 56q0 77 -87 77h-88v-153z" />
    <glyph glyph-name="afii10108" unicode="&#x45b;" horiz-adv-x="548" 
d="M4 650h61v72h113v-72h162v-86h-162v-132q58 88 145 88q78 0 121.5 -50.5t43.5 -135.5v-334h-114v303q0 55 -24.5 85t-69.5 30q-46 0 -74 -32t-28 -86v-300h-113v564h-61v86z" />
    <glyph glyph-name="afii10109" unicode="&#x45c;" horiz-adv-x="522" 
d="M178 136v-136h-113v530h113v-248l191 248h130l-175 -223l188 -307h-131l-133 220zM401 710l-117 -117h-83l100 163z" />
    <glyph glyph-name="afii10110" unicode="&#x45e;" horiz-adv-x="526" 
d="M157 -154q-59 0 -111 27l34 87q33 -18 65 -18q44 0 68 57l-190 531h119l124 -393l119 393h117l-185 -541q-26 -77 -63 -110t-97 -33zM266 588q-57 0 -95.5 35t-46.5 97l68 12q17 -67 74 -67q59 0 74 67l68 -12q-8 -62 -46 -97t-96 -35z" />
    <glyph glyph-name="afii10193" unicode="&#x45f;" horiz-adv-x="550" 
d="M485 530v-530h-155v-116h-107v116h-158v530h114v-433h193v433h113z" />
    <glyph glyph-name="afii10050" unicode="&#x490;" horiz-adv-x="491" 
d="M479 594h-287v-594h-115v700h291v136h96z" />
    <glyph glyph-name="afii10098" unicode="&#x491;" horiz-adv-x="411" 
d="M393 433h-215v-433h-113v530h219v116h98z" />
    <glyph glyph-name="endash" unicode="&#x2013;" horiz-adv-x="502" 
d="M450 252h-399v108h399v-108z" />
    <glyph glyph-name="emdash" unicode="&#x2014;" horiz-adv-x="823" 
d="M771 252h-720v108h720v-108z" />
    <glyph glyph-name="quoteleft" unicode="&#x2018;" horiz-adv-x="250" 
d="M215 656q-90 -19 -82 -97h51v-133h-127v112q0 78 36 118t110 48z" />
    <glyph glyph-name="quoteright" unicode="&#x2019;" horiz-adv-x="250" 
d="M194 589q0 -79 -36.5 -118.5t-110.5 -47.5l-12 48q90 19 82 97h-51v132h128v-111z" />
    <glyph glyph-name="quotesinglbase" unicode="&#x201a;" horiz-adv-x="256" 
d="M193 21q0 -78 -36.5 -118t-112.5 -48l-11 49q90 19 84 96h-52v132h128v-111z" />
    <glyph glyph-name="quotedblleft" unicode="&#x201c;" horiz-adv-x="464" 
d="M429 656q-90 -19 -82 -97h51v-133h-128v112q0 78 36.5 118t110.5 48zM215 656q-90 -19 -82 -97h51v-133h-127v112q0 78 36 118t110 48z" />
    <glyph glyph-name="quotedblright" unicode="&#x201d;" horiz-adv-x="464" 
d="M408 589q0 -79 -36.5 -118.5t-110.5 -47.5l-12 48q90 19 82 97h-51v132h128v-111zM194 589q0 -79 -36.5 -118.5t-110.5 -47.5l-12 48q90 19 82 97h-51v132h128v-111z" />
    <glyph glyph-name="quotedblbase" unicode="&#x201e;" horiz-adv-x="472" 
d="M409 21q0 -78 -36.5 -118t-112.5 -48l-12 49q91 19 85 96h-52v132h128v-111zM193 21q0 -78 -36.5 -118t-112.5 -48l-11 49q90 19 84 96h-52v132h128v-111z" />
    <glyph glyph-name="dagger" unicode="&#x2020;" horiz-adv-x="359" 
d="M205 513l10 -275h-71l9 275l-108 -9v71l107 -11l-12 136h78l-12 -136l107 11v-71z" />
    <glyph glyph-name="daggerdbl" unicode="&#x2021;" horiz-adv-x="379" 
d="M323 125l-107 9l12 -134h-78l12 134l-107 -9v71l107 -11l-9 165l9 163l-107 -9v71l107 -11l-12 136h79l-13 -136l107 11v-71l-108 9l10 -163l-10 -165l108 11v-71z" />
    <glyph glyph-name="bullet" unicode="&#x2022;" horiz-adv-x="447" 
d="M223 212q-55 0 -92 39t-37 99v5q0 60 37 99t92 39t92.5 -39t37.5 -99v-5q0 -60 -37.5 -99t-92.5 -39z" />
    <glyph glyph-name="ellipsis" unicode="&#x2026;" horiz-adv-x="752" 
d="M689 0h-125v131h125v-131zM439 0h-126v131h126v-131zM188 0h-125v131h125v-131z" />
    <glyph glyph-name="perthousand" unicode="&#x2030;" horiz-adv-x="1101" 
d="M339 531v-5q0 -76 -42.5 -127t-107.5 -51t-106 50t-41 126v6q0 76 42 126.5t107 50.5t106.5 -50t41.5 -126zM563 700h88l-454 -700h-88zM1059 176v-6q0 -76 -42 -126.5t-108 -50.5q-65 0 -105.5 50t-40.5 126v5q0 76 41.5 126.5t106.5 50.5t106.5 -49.5t41.5 -125.5z
M718 176v-6q0 -76 -42 -126.5t-108 -50.5q-65 0 -106 50t-41 126v5q0 76 42 126.5t107 50.5t106.5 -49.5t41.5 -125.5zM255 524v6q0 46 -18.5 74.5t-47.5 28.5q-30 0 -47.5 -28.5t-17.5 -73.5v-5q0 -47 19 -75.5t48 -28.5q30 0 47 28t17 74zM976 169v5q0 46 -19 74.5
t-48 28.5t-46.5 -28t-17.5 -74v-5q0 -46 18.5 -75t47.5 -29q30 0 47.5 28.5t17.5 74.5zM634 169v5q0 46 -18.5 74.5t-47.5 28.5t-47 -28t-18 -74v-5q0 -46 19 -75t48 -29t46.5 28.5t17.5 74.5z" />
    <glyph glyph-name="guilsinglleft" unicode="&#x2039;" horiz-adv-x="326" 
d="M281 87l-88 -46l-153 219v8l153 220l88 -45l-125 -178z" />
    <glyph glyph-name="guilsinglright" unicode="&#x203a;" horiz-adv-x="326" 
d="M287 260l-155 -219l-88 45l127 178l-126 177l87 47l155 -220v-8z" />
    <glyph glyph-name="fraction" unicode="&#x2044;" horiz-adv-x="435" 
d="M367 754h103l-421 -843h-103z" />
    <glyph glyph-name="Euro" unicode="&#x20ac;" horiz-adv-x="616" 
d="M577 93q-82 -104 -195 -104q-98 0 -166 63.5t-93 175.5h-82v81h71q-1 12 -1 37v7q0 29 1 43h-71v81h84q26 109 94 171.5t163 62.5q117 0 193 -97l-65 -79q-29 37 -58.5 54t-69.5 17q-48 0 -83.5 -33.5t-53.5 -95.5h185v-81h-200q-2 -13 -2 -42v-7q0 -25 1 -38h201v-81
h-187q37 -134 145 -134q66 0 127 74z" />
    <glyph glyph-name="afii61352" unicode="&#x2116;" horiz-adv-x="949" 
d="M77 0v700h110l265 -464v464h117v-700h-102l-274 476v-476h-116zM768 226q-59 0 -97 43.5t-38 111.5v5q0 67 38 111t97 44t97 -43.5t38 -110.5v-6q0 -67 -38.5 -111t-96.5 -44zM768 294q27 0 44 23.5t17 65.5t-17.5 66t-43.5 24q-27 0 -44.5 -24t-17.5 -66q0 -40 18 -64.5
t44 -24.5zM644 98v75h247v-75h-247z" />
    <glyph glyph-name="published" unicode="&#x2117;" horiz-adv-x="738" 
d="M693 355v-10q0 -150 -93.5 -253t-231.5 -103q-137 0 -230 102.5t-93 252.5v10q0 150 93.5 253.5t231.5 103.5q137 0 230 -103t93 -253zM656 345v10q0 136 -81 228.5t-205 92.5q-125 0 -206.5 -93t-81.5 -229v-11q0 -136 81 -227.5t205 -91.5t206 92.5t82 228.5zM520 419
v-1q0 -62 -40.5 -96t-102.5 -35h-52v-121h-68v381h124q64 0 101.5 -34t37.5 -94zM451 417q0 33 -19 50.5t-52 17.5h-55v-136h55q32 0 51.5 18.5t19.5 49.5z" />
    <glyph glyph-name="trademark" unicode="&#x2122;" horiz-adv-x="609" 
d="M514 606l-80 -144h-4l-80 144v-217h-56v311h62l77 -138l76 138h61v-311h-56v217zM159 647v-258h-58v258h-79v53h215v-53h-78z" />
    <glyph glyph-name="partialdiff" unicode="&#x2202;" 
d="M0 0v700h500v-700h-500zM81 49h339l-170 255zM49 96l171 254l-171 254v-508zM450 96v508l-171 -254zM250 395l170 255h-339z" />
    <glyph glyph-name="Delta" unicode="&#x2206;" horiz-adv-x="583" 
d="M22 0l251 701h112l251 -701h-614zM180 104h297l-148 435z" />
    <glyph glyph-name="product" unicode="&#x220f;" 
d="M0 0v700h500v-700h-500zM81 49h339l-170 255zM49 96l171 254l-171 254v-508zM450 96v508l-171 -254zM250 395l170 255h-339z" />
    <glyph glyph-name="summation" unicode="&#x2211;" 
d="M0 0v700h500v-700h-500zM81 49h339l-170 255zM49 96l171 254l-171 254v-508zM450 96v508l-171 -254zM250 395l170 255h-339z" />
    <glyph glyph-name="minus" unicode="&#x2212;" 
d="M0 0v700h500v-700h-500zM81 49h339l-170 255zM49 96l171 254l-171 254v-508zM450 96v508l-171 -254zM250 395l170 255h-339z" />
    <glyph glyph-name="radical" unicode="&#x221a;" horiz-adv-x="533" 
d="M82 208l-88 -7l-5 82l147 11l105 -235l240 735h91l-315 -941h-18z" />
    <glyph glyph-name="infinity" unicode="&#x221e;" 
d="M0 0v700h500v-700h-500zM81 49h339l-170 255zM49 96l171 254l-171 254v-508zM450 96v508l-171 -254zM250 395l170 255h-339z" />
    <glyph glyph-name="integral" unicode="&#x222b;" 
d="M0 0v700h500v-700h-500zM81 49h339l-170 255zM49 96l171 254l-171 254v-508zM450 96v508l-171 -254zM250 395l170 255h-339z" />
    <glyph glyph-name="approxequal" unicode="&#x2248;" horiz-adv-x="590" 
d="M121 385l-64 15q30 141 132 141q32 0 108.5 -24.5t97.5 -24.5q54 0 73 55l32 -7q32 -7 33 -7q-29 -141 -132 -141q-33 0 -110 24.5t-97 24.5q-52 0 -73 -56zM121 156l-64 15q30 140 132 140q33 0 109 -24t97 -24q55 0 73 55l32 -8q32 -7 33 -7q-29 -140 -132 -140
q-33 0 -109.5 24t-97.5 24q-53 0 -73 -55z" />
    <glyph glyph-name="notequal" unicode="&#x2260;" horiz-adv-x="590" 
d="M417 646l80 -9l-63 -113h80v-106h-142l-76 -134h218v-106h-279l-68 -123q-76 9 -79 9l63 114h-78v106h140l76 134h-216v106h276z" />
    <glyph glyph-name="lessequal" unicode="&#x2264;" horiz-adv-x="590" 
d="M68 20v101h454v-101h-454zM522 167l-454 172v110l454 172v-113l-335 -114l335 -113v-114z" />
    <glyph glyph-name="greaterequal" unicode="&#x2265;" horiz-adv-x="590" 
d="M521 339l-452 -172v113l334 114l-334 113v114l452 -172v-110zM522 121v-101h-454v101h454z" />
    <glyph glyph-name="lozenge" unicode="&#x25ca;" 
d="M0 0v700h500v-700h-500zM81 49h339l-170 255zM49 96l171 254l-171 254v-508zM450 96v508l-171 -254zM250 395l170 255h-339z" />
    <glyph glyph-name="cyrbreve" unicode="&#xf6d1;" 
d="M249 588q-57 0 -95.5 35t-46.5 97l68 12q17 -67 74 -67q59 0 74 67l68 -12q-8 -62 -46 -97t-96 -35z" />
    <glyph glyph-name="cyrBreve" unicode="&#xf6d4;" 
d="M249 589q-58 0 -97 35.5t-49 97.5l72 14q17 -67 74 -67t74 67l72 -14q-10 -63 -49 -98t-97 -35z" />
    <glyph glyph-name="apple" unicode="&#xf8ff;" 
d="M0 0v700h500v-700h-500zM81 49h339l-170 255zM49 96l171 254l-171 254v-508zM450 96v508l-171 -254zM250 395l170 255h-339z" />
    <glyph glyph-name="ff" unicode="&#xfb00;" horiz-adv-x="662" 
d="M531 526h118v-93h-117v-433h-112v433h-59v94h59v41q0 159 150 159q47 0 80 -11v-96q-28 10 -55 10q-64 0 -64 -73v-31zM201 526h117v-93h-116v-433h-113v433h-59v94h59v41q0 79 39 119t111 40q47 0 80 -11v-96q-28 10 -54 10q-64 0 -64 -73v-31z" />
    </font>
</defs>
</svg>
